Дуэт по праву [1-18 из 18] (2018) HDTVRip 720p от GeneralFilm

Reply to topic
 
Author Message

olegka7373 ®

Gender: Male

Longevity: 11 months 6 days

Posts: 221

Location: Россия, Новокузнецк

Post 14-Nov-2018 19:55

[Quote]

Дуэт по праву
Год выпуска: 2018
Жанр: Детектив
Выпущено: Россия, Культ медиа
Режиссер: Владимир Мельниченко
В ролях: Валерия Шкирандо, Вера Шпак, Алексей Вакулов, Александр Никитин (III), Эльдар Калимулин, Андрей Бутин, Светлана Рубан, Екатерина Кульчицкая, Павел Мисаилов, Галина Коньшина, Сергей Колбинцев, Юлия Бедарева, Александр Лырчиков, Екатерина Гудина, Юлия Дробот
О фильме: В Следственный комитет маленького провинциального городка переводится из Москвы новая сотрудница – майор Татьяна Титова. В Москве она была следователем по особо важным делам. Но негласная директива предписывает взять Титову на службу лишь рядовым оперативником. Странное назначение порождает массу слухов в Следственном комитете, особенно учитывая, что по неизвестным причинам вся информация о личной жизни Титовой засекречена и исключена из ее дела. Однако ко всеобщему удивлению, Титова соглашается на эту должность. Ей приходится в срочном порядке вливаться в работу отдела, искать общий язык с лейтенантом Александром Рябых – своим новым напарником, экспертом-криминалистом циником Гаевским и добродушным судмедэкспертом Михаилом Тучковым. Но главное – с новой начальницей майором Аллой Давыдовой – своей лучшей подругой, с которой они не разговаривали много лет… Благодаря профессиональному чутью и огромному опыту Татьяне и Алле вместе удается виртуозно распутывать головоломки и раскрывать преступления. Вот только Аллу очень озадачивает возвращение Татьяны. Она подозревает, что истинные мотивы бывшей подруги далеки от профессиональных, и на самом деле она вернулась потому, что все еще любит Андрея … ее мужа…

Качество: HDTVRip (720p)
Видео: MPEG-4 AVC, ~ 3500 Кбит/с, 1280x720, 25 fps
Аудио: Русский (AC3, 2 ch, 192 Кбит/с)
Продолжительность: 18 х ~ 00:48:00
Перевод: Не требуется
Субтитры: нет

Скриншоты


MediaInfo

Общее
Уникальный идентификатор : 232998434846280318850593266874059738871 (0xAF49DDC3A58ADCDCAAA4852BC21E4EF7)
Полное имя : D:\Dujet po pravu.HDTVRip.(720p).GeneralFilm\01.Dujet po pravu.HDTVRip.(720p).GeneralFilm.mkv
Формат : Matroska
Версия формата : Version 2
Размер файла : 1,22 Гбайт
Продолжительность : 47 м. 22 с.
Общий поток : 3694 Кбит/сек
Дата кодирования : UTC 2018-11-07 07:07:33
Программа кодирования : mkvmerge v7.8.0 ('River Man') 32bit built on Apr 3 2015 12:11:22
Библиотека кодирования : libebml v1.3.1 + libmatroska v1.4.2
Видео
Идентификатор : 1
Формат : AVC
Формат/Информация : Advanced Video Codec
Профиль формата : High@L4.1
Параметр CABAC формата : Да
Параметр ReFrames формата : 9 кадров
Идентификатор кодека : V_MPEG4/ISO/AVC
Продолжительность : 47 м. 22 с.
Битрейт : 3500 Кбит/сек
Ширина : 1280 пикселей
Высота : 720 пикселей
Соотношение сторон : 16:9
Режим частоты кадров : Постоянный
Частота кадров : 25,000 кадров/сек
Цветовое пространство : YUV
Субдискретизация насыщенности : 4:2:0
Битовая глубина : 8 бит
Тип развёртки : Прогрессивная
Бит/(Пиксели*Кадры) : 0.152
Размер потока : 1,13 Гбайт (93%)
Библиотека кодирования : x264 core 146 r2538 121396c
Настройки программы : cabac=1 / ref=9 / deblock=1:-2:-1 / analyse=0x3:0x113 / me=umh / subme=9 / psy=1 / psy_rd=1.00:0.15 / mixed_ref=1 / me_range=32 / chroma_me=1 / trellis=2 / 8x8dct=1 / cqm=0 / deadzone=21,11 / fast_pskip=0 / chroma_qp_offset=-3 / threads=18 / lookahead_threads=3 / sliced_threads=0 / nr=0 / decimate=1 / interlaced=0 / bluray_compat=0 / constrained_intra=0 / bframes=9 / b_pyramid=2 / b_adapt=2 / b_bias=0 / direct=1 / weightb=1 / open_gop=0 / weightp=2 / keyint=250 / keyint_min=25 / scenecut=40 / intra_refresh=0 / rc_lookahead=40 / rc=2pass / mbtree=0 / bitrate=3500 / ratetol=1.0 / qcomp=0.60 / qpmin=0 / qpmax=69 / qpstep=4 / cplxblur=20.0 / qblur=0.5 / vbv_maxrate=14000 / vbv_bufsize=14000 / nal_hrd=none / filler=0 / ip_ratio=1.40 / pb_ratio=1.30 / aq=2:1.00
Default : Да
Forced : Нет
Цветовой диапазон : Limited
Основные цвета : BT.709
Характеристики трансфера : BT.709
Коэффициенты матрицы : BT.709
Аудио
Идентификатор : 2
Формат : AC-3
Формат/Информация : Audio Coding 3
Расширение режима : CM (complete main)
Параметр Endianness формата : Big
Идентификатор кодека : A_AC3
Продолжительность : 47 м. 22 с.
Вид битрейта : Постоянный
Битрейт : 192 Кбит/сек
Каналы : 2 канала
Расположение каналов : Front: L R
Частота : 48,0 КГц
Частота кадров : 31,250 кадров/сек (1536 spf)
Битовая глубина : 16 бит
Метод сжатия : С потерями
Размер потока : 65,1 Мбайт (5%)
Default : Да
Forced : Нет
Релиз:
[Profile] [PM]
Display posts:    
Reply to topic

Current time is: 19-Oct 16:37

All times are UTC + 3



You cannot post new topics in this forum
You cannot reply to topics in this forum
You cannot edit your posts in this forum
You cannot delete your posts in this forum
You cannot vote in polls in this forum
You cannot attach files in this forum
You cannot download files in this forum