Дуэт по праву [1-18 серия из 50] (2018) HDTVRip-AVC от Files-x

Reply to topic
 
Author Message

Серый1779 ®

Gender: Male

Longevity: 6 months 11 days

Posts: 438

Location: Украина

Post 16-Nov-2018 22:58

[Quote]

Дуэт по праву
Год выпуска: 2018
Жанр: Детектив
Выпущено: Россия, Культ медиа
Режиссер: Владимир Мельниченко
В ролях: Валерия Шкирандо, Вера Шпак, Алексей Вакулов, Александр Никитин (III), Эльдар Калимулин, Андрей Бутин, Светлана Рубан, Екатерина Кульчицкая, Павел Мисаилов, Галина Коньшина, Сергей Колбинцев, Юлия Бедарева, Александр Лырчиков, Екатерина Гудина, Юлия Дробот
О фильме: В Следственный комитет маленького провинциального городка переводится из Москвы новая сотрудница – майор Татьяна Титова. В Москве она была следователем по особо важным делам. Но негласная директива предписывает взять Титову на службу лишь рядовым оперативником. Странное назначение порождает массу слухов в Следственном комитете, особенно учитывая, что по неизвестным причинам вся информация о личной жизни Титовой засекречена и исключена из ее дела. Однако ко всеобщему удивлению, Титова соглашается на эту должность. Ей приходится в срочном порядке вливаться в работу отдела, искать общий язык с лейтенантом Александром Рябых – своим новым напарником, экспертом-криминалистом циником Гаевским и добродушным судмедэкспертом Михаилом Тучковым. Но главное – с новой начальницей майором Аллой Давыдовой – своей лучшей подругой, с которой они не разговаривали много лет… Благодаря профессиональному чутью и огромному опыту Татьяне и Алле вместе удается виртуозно распутывать головоломки и раскрывать преступления. Вот только Аллу очень озадачивает возвращение Татьяны. Она подозревает, что истинные мотивы бывшей подруги далеки от профессиональных, и на самом деле она вернулась потому, что все еще любит Андрея … ее мужа…
Качество: HDTVRip (AVC)
Видео: MPEG-4 AVC, ~ 2000 Кбит/с, 1024x576, 25 кадр/с
Аудио: AC3, 2 ch, 192 Кбит/с
Продолжительность: 18 х ~ 00:48:00
Перевод: Не требуется
Субтитры: нет

Скриншоты


MediaInfo

Общее
Уникальный идентификатор : 172336178921014515848392698483514043177 (0x81A6BDA1B204F6949ED94637FAD06B29)
Полное имя : F:\Дуэт по праву.(2018).HDTVRip.(AVC).Files-x\01.Дуэт по праву.(2018).HDTVRip.(AVC).by.Серый1779.Files-x.mkv
Формат : Matroska
Версия формата : Version 2
Размер файла : 742 Мбайт
Продолжительность : 47 м. 19 с.
Общий поток : 2194 Кбит/сек
Дата кодирования : UTC 2018-11-06 16:00:27
Программа кодирования : mkvmerge v7.8.0 ('River Man') 32bit built on Apr 3 2015 12:11:22
Библиотека кодирования : libebml v1.3.1 + libmatroska v1.4.2
Видео
Идентификатор : 1
Формат : AVC
Формат/Информация : Advanced Video Codec
Профиль формата : High@L4.1
Настройки формата : CABAC / 9 Ref Frames
Параметр CABAC формата : Да
Параметр RefFrames формата : 9 кадров
Идентификатор кодека : V_MPEG4/ISO/AVC
Продолжительность : 47 м. 19 с.
Битрейт : 2000 Кбит/сек
Ширина : 1024 пикселя
Высота : 576 пикселей
Соотношение сторон : 16:9
Режим частоты кадров : Постоянный
Частота кадров : 25,000 кадров/сек
Цветовое пространство : YUV
Субдискретизация насыщенности : 4:2:0
Битовая глубина : 8 бит
Тип развёртки : Прогрессивная
Бит/(Пиксели*Кадры) : 0.136
Размер потока : 663 Мбайт (89%)
Библиотека кодирования : x264 core 146 r2538 121396c
Настройки программы : cabac=1 / ref=9 / deblock=1:-2:-1 / analyse=0x3:0x133 / me=umh / subme=9 / psy=1 / psy_rd=1.00:0.15 / mixed_ref=1 / me_range=32 / chroma_me=1 / trellis=2 / 8x8dct=1 / cqm=0 / deadzone=21,11 / fast_pskip=0 / chroma_qp_offset=-3 / threads=18 / lookahead_threads=3 / sliced_threads=0 / nr=0 / decimate=1 / interlaced=0 / bluray_compat=0 / constrained_intra=0 / bframes=9 / b_pyramid=2 / b_adapt=2 / b_bias=0 / direct=1 / weightb=1 / open_gop=0 / weightp=2 / keyint=250 / keyint_min=25 / scenecut=40 / intra_refresh=0 / rc=2pass / mbtree=0 / bitrate=2000 / ratetol=1.0 / qcomp=0.60 / qpmin=0 / qpmax=69 / qpstep=4 / cplxblur=20.0 / qblur=0.5 / ip_ratio=1.40 / pb_ratio=1.30 / aq=2:1.00
Default : Да
Forced : Нет
Цветовой диапазон : Limited
Основные цвета : BT.709
Характеристики трансфера : BT.709
Коэффициенты матрицы : BT.709
Аудио
Идентификатор : 2
Формат : AC-3
Формат/Информация : Audio Coding 3
Параметр Endianness формата : Big
Идентификатор кодека : A_AC3
Продолжительность : 47 м. 19 с.
Вид битрейта : Постоянный
Битрейт : 192 Кбит/сек
Каналы : 2 канала
Расположение каналов : Front: L R
Частота : 44,1 КГц
Частота кадров : 28,711 кадров/сек (1536 SPF)
Битовая глубина : 16 бит
Метод сжатия : С потерями
Размер потока : 65,0 Мбайт (9%)
ServiceKind/String : Complete Main
Default : Да
Forced : Нет

Раздача ведётся путём добавления новых серий

Внимание! Раздача ведётся путём добавления новых серий; при каждом добавлении создаётся новый торрент.
Чтобы начать докачку новой серии, пользователям необходимо сделать следующее:
1. Остановить скачивание;
2. Удалить старый торрент у себя из клиента (старые серии удалять не надо);
3. Скачать новый торрент и запустить его у себя в клиенте вместо старого, при этом указать клиенту путь в старую папку куда и должно происходить скачивание новых серий. Ваш клиент при этом должен произвести хеширование (проверку) старой папки и будет докачивать только те серии, которых у вас ещё нет. Старые серии при этом не удаляются, а продолжают раздаваться! Eсли вы уже удалили старые серии, то предотвратить повторную закачку старых серий можно, отжав галочку в соответствующих местах при запуске нового торрента.
Релиз от:


Last edited by Серый1779 on 2018-11-22 16:47; edited 2 times in total
[Profile] [PM]
Display posts:    
Reply to topic

Current time is: 23-May 21:01

All times are UTC + 3



You cannot post new topics in this forum
You cannot reply to topics in this forum
You cannot edit your posts in this forum
You cannot delete your posts in this forum
You cannot vote in polls in this forum
You cannot attach files in this forum
You cannot download files in this forum