Пожалуйста, приготовьтесь / Please Stand By (2017) BDRip 720p

Reply to topic
 
Author Message

Monk ®

Gender: Male

Longevity: 11 months 8 days

Posts: 9042

Location: Казань

Post 19-Nov-2018 10:42

[Quote]

Пожалуйста, приготовьтесь / Please Stand By Год выпуска: 2017
Жанр: Драма, комедия
Выпущено: США, 2929 Productions
Режиссер: Бен Луин
В ролях: Дакота Фэннинг, Тони Коллетт, Элис Ив, Ривер Александр, Марла Гиббс, Джессика Рот, Майкл Сталь-Дэвид, Стефани Аллен, Мэттью Кардаропле, Мэтт Корбой
О фильме: Сюжет художественного фильма «Пожалуйста, приготовьтесь» вертится вокруг молодой девушки Вэнди, страдающей аутизмом. Несмотря на болезнь девушка пытается вести нормальный образ жизни и в этом ей помогает сотрудница специального центра Скотти, в котором живет Вэнди. Со временем состояние девушки сильно улучшилось: она устроилась на работу в ресторан быстрого питания и завела четвероногого друга, за которым ухаживает. Вэнди может заботиться о себе сама, но сестра Одри отказывается забирать ее из центра, что приводит к срыву. Больше всего в жизни Вэнди обожает фантастический сериал «Звездный путь», который может смотреть бесконечно. Она даже пишет собственную книгу, главным героем которой стал Спок. Когда же объявляют конкурс на лучший сценарий для «Звездного пути», то Вэнди приступает к работе. Проверив и перепроверив сценарий она собирается отправить его, но не успевает к нужной дате, поэтому решает отправиться в Лос-Анджелес, чтобы доставить сценарий лично.

Качество: BDRip 720p
Видео: MPEG-4 AVC, 6000 Кбит/с, 1280x534
Аудио: Русский (AC3, 6 ch, 384 Кбит/с)
Продолжительность: 01:32:46
Перевод: Профессиональный многоголосый [Jaskier]

Скриншоты

MediaInfo

Общее
Уникальный идентификатор : 193243650721601262393566280994527442916 (0x91615F93C88575EFB564D79B2320F7E4)
Полное имя : D:\Please Stand By 2017 BluRay 720p -JASKiER.mkv
Формат : Matroska
Версия формата : Version 2
Размер файла : 4,14 Гбайт
Продолжительность : 1 ч. 32 м.
Общий поток : 6382 Кбит/сек
Дата кодирования : UTC 2018-06-22 17:46:59
Программа кодирования : mkvmerge v5.8.0 ('No Sleep / Pillow') built on Sep 2 2012 15:37:04
Библиотека кодирования : libebml v1.2.3 + libmatroska v1.3.0
Видео
Идентификатор : 1
Формат : AVC
Формат/Информация : Advanced Video Codec
Профиль формата : High@L4.1
Настройки формата : CABAC / 12 Ref Frames
Параметр CABAC формата : Да
Параметр RefFrames формата : 12 кадров
Идентификатор кодека : V_MPEG4/ISO/AVC
Продолжительность : 1 ч. 32 м.
Битрейт : 6000 Кбит/сек
Ширина : 1280 пикселей
Высота : 534 пикселя
Соотношение сторон : 2,40:1
Режим частоты кадров : Постоянный
Частота кадров : 23,976 (24000/1001) кадра/сек
Цветовое пространство : YUV
Субдискретизация насыщенности : 4:2:0
Битовая глубина : 8 бит
Тип развёртки : Прогрессивная
Бит/(Пиксели*Кадры) : 0.366
Размер потока : 3,80 Гбайт (92%)
Библиотека кодирования : x264 core 152 r2851 ba24899
Настройки программы : cabac=1 / ref=12 / deblock=1:-2:-2 / analyse=0x3:0x133 / me=umh / subme=10 / psy=1 / psy_rd=1.00:0.00 / mixed_ref=1 / me_range=32 / chroma_me=1 / trellis=2 / 8x8dct=1 / cqm=0 / deadzone=21,11 / fast_pskip=0 / chroma_qp_offset=-2 / threads=12 / lookahead_threads=1 / sliced_threads=0 / nr=0 / decimate=0 / interlaced=0 / bluray_compat=0 / constrained_intra=0 / bframes=6 / b_pyramid=2 / b_adapt=2 / b_bias=0 / direct=3 / weightb=1 / open_gop=0 / weightp=2 / keyint=230 / keyint_min=22 / scenecut=40 / intra_refresh=0 / rc_lookahead=60 / rc=2pass / mbtree=1 / bitrate=6000 / ratetol=1.0 / qcomp=0.60 / qpmin=0 / qpmax=69 / qpstep=4 / cplxblur=20.0 / qblur=0.5 / vbv_maxrate=50000 / vbv_bufsize=50000 / nal_hrd=none / filler=0 / ip_ratio=1.40 / aq=1:1.00
Язык : English
Default : Да
Forced : Нет
Аудио
Идентификатор : 2
Формат : AC-3
Формат/Информация : Audio Coding 3
Идентификатор кодека : A_AC3
Продолжительность : 1 ч. 32 м.
Вид битрейта : Постоянный
Битрейт : 384 Кбит/сек
Каналы : 6 каналов
Расположение каналов : Front: L C R, Side: L R, LFE
Частота : 48,0 КГц
Частота кадров : 31,250 кадров/сек (1536 SPF)
Битовая глубина : 16 бит
Метод сжатия : С потерями
Размер потока : 255 Мбайт (6%)
Язык : Russian
ServiceKind/String : Complete Main
Default : Да
Forced : Нет
[Profile] [PM]
Display posts:    
Reply to topic

Current time is: 22-Oct 15:31

All times are UTC + 3



You cannot post new topics in this forum
You cannot reply to topics in this forum
You cannot edit your posts in this forum
You cannot delete your posts in this forum
You cannot vote in polls in this forum
You cannot attach files in this forum
You cannot download files in this forum