Пожалуйста, приготовьтесь / Please Stand By (2017) BDRip AVC

Ответить на тему
 
Автор Сообщение

Monk ®

Пол: Мужской

Стаж: 3 месяца 1 день

Сообщений: 3233

Откуда: Казань

Создавать темы 19-Ноя-2018 10:43

[Цитировать]

Пожалуйста, приготовьтесь / Please Stand By Год выпуска: 2017
Жанр: Драма, комедия
Выпущено: США, 2929 Productions
Режиссер: Бен Луин
В ролях: Дакота Фэннинг, Тони Коллетт, Элис Ив, Ривер Александр, Марла Гиббс, Джессика Рот, Майкл Сталь-Дэвид, Стефани Аллен, Мэттью Кардаропле, Мэтт Корбой
О фильме: Сюжет художественного фильма «Пожалуйста, приготовьтесь» вертится вокруг молодой девушки Вэнди, страдающей аутизмом. Несмотря на болезнь девушка пытается вести нормальный образ жизни и в этом ей помогает сотрудница специального центра Скотти, в котором живет Вэнди. Со временем состояние девушки сильно улучшилось: она устроилась на работу в ресторан быстрого питания и завела четвероногого друга, за которым ухаживает. Вэнди может заботиться о себе сама, но сестра Одри отказывается забирать ее из центра, что приводит к срыву. Больше всего в жизни Вэнди обожает фантастический сериал «Звездный путь», который может смотреть бесконечно. Она даже пишет собственную книгу, главным героем которой стал Спок. Когда же объявляют конкурс на лучший сценарий для «Звездного пути», то Вэнди приступает к работе. Проверив и перепроверив сценарий она собирается отправить его, но не успевает к нужной дате, поэтому решает отправиться в Лос-Анджелес, чтобы доставить сценарий лично.

Качество: BDRip AVC
Видео: MPEG-4 AVC, 1704 Кбит/с, 1024x426
Аудио: Русский (AC3, 6 ch, 384 Кбит/с), (AC3, 6 ch, 448 Кбит/с), английский (AC3, 6 ch, 448 Кбит/с)
Продолжительность: 01:32:46
Перевод 1: Профессиональный многоголосый [Jaskier]
Перевод 2: Профессиональный многоголосый [HDrezka Studio]
Субтитры: Русские, английские

Скриншоты


MediaInfo

Общее
Уникальный идентификатор : 203464035297902754502369769291955774800 (0x9911BF710A560B8EB8BD430F5F372550)
Полное имя : D:\Please.Stand.By.2017.2xRus.BDRip.AVC.ExKinoRay.mkv
Формат : Matroska
Версия формата : Version 2
Размер файла : 1,93 Гбайт
Продолжительность : 1 ч. 32 м.
Общий поток : 2983 Кбит/сек
Название фильма : Please Stand By (2017) from ExKinoRay
Дата кодирования : UTC 2018-11-19 03:47:08
Программа кодирования : mkvmerge v5.6.0 ('Kenya Kane') built on May 27 2012 16:44:04
Библиотека кодирования : libebml v1.2.3 + libmatroska v1.3.0
Видео
Идентификатор : 1
Формат : AVC
Формат/Информация : Advanced Video Codec
Профиль формата : High@L4.1
Настройки формата : CABAC / 12 Ref Frames
Параметр CABAC формата : Да
Параметр RefFrames формата : 12 кадров
Идентификатор кодека : V_MPEG4/ISO/AVC
Продолжительность : 1 ч. 32 м.
Битрейт : 1704 Кбит/сек
Ширина : 1024 пикселя
Высота : 426 пикселей
Соотношение сторон : 2,40:1
Режим частоты кадров : Постоянный
Частота кадров : 23,976 (24000/1001) кадра/сек
Цветовое пространство : YUV
Субдискретизация насыщенности : 4:2:0
Битовая глубина : 8 бит
Тип развёртки : Прогрессивная
Бит/(Пиксели*Кадры) : 0.163
Размер потока : 1,06 Гбайт (55%)
Заголовок : Enigma
Библиотека кодирования : x264 core 152 r2851 ba24899
Настройки программы : cabac=1 / ref=12 / deblock=1:-2:-2 / analyse=0x3:0x113 / me=umh / subme=10 / psy=1 / psy_rd=1.04:0.10 / mixed_ref=1 / me_range=32 / chroma_me=1 / trellis=2 / 8x8dct=1 / cqm=0 / deadzone=21,11 / fast_pskip=0 / chroma_qp_offset=-3 / threads=12 / lookahead_threads=3 / sliced_threads=0 / nr=0 / decimate=0 / interlaced=0 / bluray_compat=0 / constrained_intra=0 / bframes=14 / b_pyramid=2 / b_adapt=2 / b_bias=0 / direct=3 / weightb=1 / open_gop=0 / weightp=2 / keyint=240 / keyint_min=23 / scenecut=40 / intra_refresh=0 / rc=2pass / mbtree=0 / bitrate=1704 / ratetol=1.0 / qcomp=0.65 / qpmin=0 / qpmax=51 / qpstep=4 / cplxblur=20.0 / qblur=0.5 / ip_ratio=1.40 / pb_ratio=1.30 / aq=2:0.90
Язык : English
Default : Да
Forced : Нет
Цветовой диапазон : Limited
Основные цвета : BT.709
Характеристики трансфера : BT.709
Коэффициенты матрицы : BT.709
Аудио #1
Идентификатор : 2
Формат : AC-3
Формат/Информация : Audio Coding 3
Идентификатор кодека : A_AC3
Продолжительность : 1 ч. 32 м.
Вид битрейта : Постоянный
Битрейт : 384 Кбит/сек
Каналы : 6 каналов
Расположение каналов : Front: L C R, Side: L R, LFE
Частота : 48,0 КГц
Частота кадров : 31,250 кадров/сек (1536 SPF)
Битовая глубина : 16 бит
Метод сжатия : С потерями
Размер потока : 255 Мбайт (13%)
Заголовок : MVO (Jaskier)
Язык : Russian
ServiceKind/String : Complete Main
Default : Да
Forced : Нет
Аудио #2
Идентификатор : 3
Формат : AC-3
Формат/Информация : Audio Coding 3
Идентификатор кодека : A_AC3
Продолжительность : 1 ч. 32 м.
Вид битрейта : Постоянный
Битрейт : 448 Кбит/сек
Каналы : 6 каналов
Расположение каналов : Front: L C R, Side: L R, LFE
Частота : 48,0 КГц
Частота кадров : 31,250 кадров/сек (1536 SPF)
Битовая глубина : 16 бит
Метод сжатия : С потерями
Размер потока : 297 Мбайт (15%)
Заголовок : MVO (HDrezka Studio)
Язык : Russian
ServiceKind/String : Complete Main
Default : Нет
Forced : Нет
Аудио #3
Идентификатор : 4
Формат : AC-3
Формат/Информация : Audio Coding 3
Идентификатор кодека : A_AC3
Продолжительность : 1 ч. 32 м.
Вид битрейта : Постоянный
Битрейт : 448 Кбит/сек
Каналы : 6 каналов
Расположение каналов : Front: L C R, Side: L R, LFE
Частота : 48,0 КГц
Частота кадров : 31,250 кадров/сек (1536 SPF)
Битовая глубина : 16 бит
Метод сжатия : С потерями
Размер потока : 297 Мбайт (15%)
Язык : English
ServiceKind/String : Complete Main
Default : Нет
Forced : Нет
Текст #1
Идентификатор : 5
Формат : UTF-8
Идентификатор кодека : S_TEXT/UTF8
Идентификатор кодека/Информация : UTF-8 Plain Text
Язык : Russian
Default : Нет
Forced : Нет
Текст #2
Идентификатор : 6
Формат : UTF-8
Идентификатор кодека : S_TEXT/UTF8
Идентификатор кодека/Информация : UTF-8 Plain Text
Язык : English
Default : Нет
Forced : Нет
Меню
00:00:00.000 : en:Chapter 01
00:07:47.842 : en:Chapter 02
00:17:04.356 : en:Chapter 03
00:22:42.944 : en:Chapter 04
00:30:44.884 : en:Chapter 05
00:37:56.857 : en:Chapter 06
00:48:05.382 : en:Chapter 07
00:53:31.374 : en:Chapter 08
01:02:41.674 : en:Chapter 09
01:13:14.515 : en:Chapter 10
01:20:46.341 : en:Chapter 11
01:28:14.956 : en:Chapter 12
[Профиль] [ЛС]
Показать сообщения:    
Ответить на тему

Текущее время: 16-Фев 11:17

Часовой пояс: UTC + 3



Вы не можете начинать темы
Вы не можете отвечать на сообщения
Вы не можете редактировать свои сообщения
Вы не можете удалять свои сообщения
Вы не можете голосовать в опросах
Вы не можете прикреплять файлы к сообщениям
Вы не можете скачивать файлы