Охота на верного (2018) HDTVRip 720p

Ответить на тему
 
Автор Сообщение

Monk ®

Пол: Мужской

Стаж: 3 месяца 2 дня

Сообщений: 3233

Откуда: Казань

Создавать темы 19-Ноя-2018 10:49

[Цитировать]

Охота на верного Год выпуска: 2018
Жанр: Мелодрама
Выпущено: Россия, Фабула Продакшн
Режиссер: Пётр Степин
В ролях: Екатерина Астахова, Кирилл Запорожский, Дарья Повереннова, Татьяна Янкевич, Евгений Казакевич
О фильме: После того, как Ольга узнает, что у ее любимого мужчины от жены родился сын и уходить из семьи он не собирается, раздавленная девушка в отчаянии заявляет своей коллеге Тамаре, что все мужчины одинаковы - они все изменяют. Изменяют и женам, и любовницам, причем в тот же момент, как им подвернется шанс. Тамара не соглашается с таким выводом и приводит в пример их нового сотрудника Николая. Он идеальный семьянин, прекрасный отец, надежный и верный муж. Всегда спешит домой и все вечера, выходные и отпуск проводит с женой и детьми. Но Ольга уверена, что все это до поры до времени, ведь верных мужчин в природе не существует. И как только у Николая появится шанс изменить жене, он тут же им воспользуется. А чтобы доказать это, Ольга предлагает коллеге пари – она легко соблазнит этого «верного» и заставит изменить жене…
Качество: HDTVRip 720p
Видео: MPEG-4 AVC, 4613 Кбит/с, 1280х720
Аудио: АС3, 2 ch, 192 Кбит/с
Продолжительность: 01:31:13
Перевод: Не требуется
Возможно наличие "всплывающих" надписей

Скриншоты



MediaInfo

Общее
Уникальный идентификатор : 155745778380133994407172168717116401382 (0x752B8BBB7A1354F2707FF700476466E6)
Полное имя : D:\Ohota.na.vernogo.2018.HDTVRip.720.mkv
Формат : Matroska
Версия формата : Version 4 / Version 2
Размер файла : 3,06 Гбайт
Продолжительность : 1 ч. 31 м.
Режим общего битрейта : Постоянный
Общий поток : 4808 Кбит/сек
Программа кодирования : Lavf57.71.100
Библиотека кодирования : Lavf57.71.100
ErrorDetectionType : Per level 1
Видео
Идентификатор : 1
Формат : AVC
Формат/Информация : Advanced Video Codec
Профиль формата : Main@L3.1
Настройки формата : CABAC / 1 Ref Frames
Параметр CABAC формата : Да
Параметр RefFrames формата : 1 кадр
Параметр GOP формата : M=1, N=25
Идентификатор кодека : V_MPEG4/ISO/AVC
Продолжительность : 1 ч. 31 м.
Вид битрейта : Постоянный
Битрейт : 4613 Кбит/сек
Ширина : 1280 пикселей
Высота : 720 пикселей
Соотношение сторон : 16:9
Режим частоты кадров : Постоянный
Частота кадров : 25,000 кадров/сек
Цветовое пространство : YUV
Субдискретизация насыщенности : 4:2:0
Битовая глубина : 8 бит
Тип развёртки : Прогрессивная
Бит/(Пиксели*Кадры) : 0.200
Размер потока : 2,88 Гбайт (94%)
Default : Да
Forced : Нет
Аудио
Идентификатор : 2
Формат : AC-3
Формат/Информация : Audio Coding 3
Идентификатор кодека : A_AC3
Продолжительность : 1 ч. 31 м.
Вид битрейта : Постоянный
Битрейт : 192 Кбит/сек
Каналы : 2 канала
Расположение каналов : Front: L R
Частота : 48,0 КГц
Частота кадров : 31,250 кадров/сек (1536 SPF)
Битовая глубина : 16 бит
Метод сжатия : С потерями
Размер потока : 125 Мбайт (4%)
Язык : Russian
ServiceKind/String : Complete Main
Default : Да
Forced : Нет
[Профиль] [ЛС]
Показать сообщения:    
Ответить на тему

Текущее время: 16-Фев 21:34

Часовой пояс: UTC + 3



Вы не можете начинать темы
Вы не можете отвечать на сообщения
Вы не можете редактировать свои сообщения
Вы не можете удалять свои сообщения
Вы не можете голосовать в опросах
Вы не можете прикреплять файлы к сообщениям
Вы не можете скачивать файлы