Охота на верного (2018) WEBRip от Files-x

Reply to topic
 
Author Message

Nicodem ®

Gender: Male

Longevity: 9 months

Posts: 197

Post 17-Nov-2018 23:16

[Quote]

Охота на верного
Год выпуска: 2018
Жанр: Мелодрама
Выпущено: Россия, Кинокомпания "Паламеда продакшн", "Фабула Продакшн"
Режиссер: Пётр Степин
В ролях: Екатерина Астахова, Кирилл Запорожский, Дарья Повереннова, Татьяна Янкевич, Евгений Казакевич, Дмитрий Тумас, Евгений Никитин, Зоя Белохвостик
О фильме: После того, как Ольга узнает, что у ее любимого мужчины от жены родился сын и уходить из семьи он не собирается, раздавленная девушка в отчаянии заявляет своей коллеге Тамаре, что все мужчины одинаковы — они все изменяют. Тамара не соглашается и приводит в пример их нового сотрудника Николая: идеальный семьянин, всегда спешит домой и все вечера, выходные и отпуск проводит с женой и детьми. Но Ольга уверена, что как только у Николая появится шанс изменить жене, он тут же им воспользуется. А чтобы доказать это, она предлагает коллеге пари — она легко соблазнит этого «верного» и заставит изменить жене…

Качество: WEBRip
Видео: XviD, ~ 1935 Кбит/с, 720x400, 25 Кадр/с
Аудио: AC3, 2 ch, 192 Кбит/с
Продолжительность: 01:31:45
Перевод: Не требуется
Cубтитры: нет

Скриншоты


MediaInfo

Общее
Полное имя : C:\Users\DOM\Downloads\Охота на верного.(2018)..WEB-DLRip.Files-x.avi
Формат : AVI
Формат/Информация : Audio Video Interleave
Размер файла : 1,37 Гбайт
Продолжительность : 1 ч. 31 м.
Общий поток : 2137 Кбит/сек
Программа кодирования : VirtualDubMod 1.5.10.3 | www.virtualdub-fr.org || (build 2550/release)
Библиотека кодирования : VirtualDubMod build 2550/release
Видео
Идентификатор : 0
Формат : MPEG-4 Visual
Профиль формата : Advanced Simple@L5
Параметр BVOP формата : 1
Параметр QPel формата : Нет
Параметр GMC формата : Без точки перехода
Параметр матрицы формата : Выборочная
Идентификатор кодека : XVID
Идентификатор кодека/Подсказка : XviD
Продолжительность : 1 ч. 31 м.
Битрейт : 1935 Кбит/сек
Ширина : 720 пикс.
Высота : 400 пикс.
Соотношение сторон : 16:9
Частота кадров : 25,000 кадр/сек
Цветовое пространство : YUV
Подвыборка цветности : 4:2:0
Битовая глубина : 8 бит
Тип развёртки : Прогрессивная
Метод сжатия : С потерями
Бит/(Пиксели*Кадры) : 0.269
Размер потока : 1,24 Гбайт (91%)
Библиотека кодирования : XviD 73
Аудио
Идентификатор : 1
Формат : AC-3
Формат/Информация : Audio Coding 3
Расширение режима : CM (complete main)
Идентификатор кодека : 2000
Продолжительность : 1 ч. 31 м.
Вид битрейта : Постоянный
Битрейт : 192 Кбит/сек
Каналы : 2 канала
Расположение каналов : Front: L R
Частота : 48,0 КГц
Битовая глубина : 16 бит
Метод сжатия : С потерями
Размер потока : 126 Мбайт (9%)
Выравнивание : Разделение по промежуткам
Продолжительность промежутка : 40 мс. (1,00 видеокадр)
Время предзагрузки промежутка : 500 ms
Релиз от:
[Profile] [PM]
Display posts:    
Reply to topic

Current time is: 18-Aug 11:10

All times are UTC + 3



You cannot post new topics in this forum
You cannot reply to topics in this forum
You cannot edit your posts in this forum
You cannot delete your posts in this forum
You cannot vote in polls in this forum
You cannot attach files in this forum
You cannot download files in this forum