Пансион / Boarding School (2018) BDRip 1080p

Ответить на тему
 
Автор Сообщение

Monk ®

Пол: Мужской

Стаж: 3 месяца 2 дня

Сообщений: 3233

Откуда: Казань

Создавать темы 19-Ноя-2018 11:35

[Цитировать]

Пансион / Boarding School Год выпуска: 2018
Жанр: Ужасы
Выпущено: США, Farcaster Films,Gigantic Pictures,Maven Pictures
Режиссер: Боаз Якин
В ролях: Люк Праель, Стерлинг Джеринс, Уилл Пэттон, Коби Джордж, Кадин Джордж, Николас Оливери, Саманта Мэтис, Роберт Джон Бёрк, Надя Александр, Люси Уолтерс
О фильме: После смерти своей бабушки, Джейкоб стал одержим идеей во всём походить на неё. Из-за этого его родители были вынуждены отправить его в закрытую школу, где всё подчиняется лишь прихоти её загадочного и жестокого хозяина.

Качество: BDRip 1080p
Видео: MPEG-4 AVC, 5160 Кбит/с, 1920x1040
Аудио: Русский (AC3, 2 ch, 192 Кбит/с)
Продолжительность: 01:51:48
Перевод: Профессиональный многоголосый [HDrezka Studio]
Субтитры: Английские

Скриншоты


MediaInfo

General
Unique ID : 221398028864636253208530040478653317174 (0xA68FB5976DCAB7DCA5640F6CD0158036)
Complete name : E:\Мои рипы\Пансион.2018.BDRip.1080p.MVO.mkv
Format : Matroska
Format version : Version 4 / Version 2
File size : 4.17 GiB
Duration : 1h 51mn
Overall bit rate : 5 353 Kbps
Encoded date : UTC 2019-01-16 14:56:26
Writing application : mkvmerge v6.8.0 ('Theme for Great Cities') 32bit built on Mar 2 2014 21:27:07
Writing library : libebml v1.3.0 + libmatroska v1.4.1
Video
ID : 1
Format : AVC
Format/Info : Advanced Video Codec
Format profile : High@L4.1
Format settings, CABAC : Yes
Format settings, ReFrames : 4 frames
Codec ID : V_MPEG4/ISO/AVC
Duration : 1h 51mn
Bit rate : 5 160 Kbps
Width : 1 920 pixels
Height : 1 040 pixels
Display aspect ratio : 1.85:1
Frame rate mode : Constant
Frame rate : 24.000 fps
Color space : YUV
Chroma subsampling : 4:2:0
Bit depth : 8 bits
Scan type : Progressive
Bits/(Pixel*Frame) : 0.108
Stream size : 3.94 GiB (94%)
Writing library : x264 core 130 r2273 b3065e6
Encoding settings : cabac=1 / ref=4 / deblock=1:-3:-3 / analyse=0x3:0x113 / me=umh / subme=11 / psy=1 / psy_rd=1.00:0.15 / mixed_ref=1 / me_range=48 / chroma_me=1 / trellis=2 / 8x8dct=1 / cqm=0 / deadzone=21,11 / fast_pskip=0 / chroma_qp_offset=-4 / threads=6 / lookahead_threads=1 / sliced_threads=0 / nr=0 / decimate=0 / interlaced=0 / bluray_compat=0 / constrained_intra=0 / bframes=8 / b_pyramid=2 / b_adapt=2 / b_bias=0 / direct=3 / weightb=1 / open_gop=0 / weightp=2 / keyint=250 / keyint_min=24 / scenecut=40 / intra_refresh=0 / rc=2pass / mbtree=0 / bitrate=5160 / ratetol=1.0 / qcomp=0.60 / qpmin=0 / qpmax=69 / qpstep=4 / cplxblur=20.0 / qblur=0.5 / ip_ratio=1.40 / pb_ratio=1.30 / aq=2:1.00
Language : English
Default : Yes
Forced : No
Audio
ID : 2
Format : AC-3
Format/Info : Audio Coding 3
Mode extension : CM (complete main)
Format settings, Endianness : Big
Codec ID : A_AC3
Duration : 1h 51mn
Bit rate mode : Constant
Bit rate : 192 Kbps
Channel(s) : 2 channels
Channel positions : Front: L R
Sampling rate : 48.0 KHz
Bit depth : 16 bits
Compression mode : Lossy
Stream size : 153 MiB (4%)
Title : MVO (HDrezka Studio)
Language : Russian
Default : Yes
Forced : No
Text
ID : 3
Format : UTF-8
Codec ID : S_TEXT/UTF8
Codec ID/Info : UTF-8 Plain Text
Language : English
Default : No
Forced : No
Menu
00:00:00.000 : en:Chapter 01
00:01:04.666 : en:Chapter 02
00:04:10.625 : en:Chapter 03
00:09:13.291 : en:Chapter 04
00:12:53.166 : en:Chapter 05
00:18:31.291 : en:Chapter 06
00:24:50.958 : en:Chapter 07
00:33:51.166 : en:Chapter 08
00:39:35.458 : en:Chapter 09
00:45:58.875 : en:Chapter 10
00:53:21.833 : en:Chapter 11
01:00:17.750 : en:Chapter 12
01:10:15.000 : en:Chapter 13
01:19:51.291 : en:Chapter 14
01:26:24.000 : en:Chapter 15
01:33:29.625 : en:Chapter 16
01:41:05.791 : en:Chapter 17
01:45:36.000 : en:Chapter 18
[Профиль] [ЛС]
Показать сообщения:    
Ответить на тему

Текущее время: 16-Фев 21:36

Часовой пояс: UTC + 3



Вы не можете начинать темы
Вы не можете отвечать на сообщения
Вы не можете редактировать свои сообщения
Вы не можете удалять свои сообщения
Вы не можете голосовать в опросах
Вы не можете прикреплять файлы к сообщениям
Вы не можете скачивать файлы