Пансион / Boarding School (2018) WEB-DLRip AVC

Ответить на тему
 
Автор Сообщение

Monk ®

Пол: Мужской

Стаж: 3 месяца 2 дня

Сообщений: 3233

Откуда: Казань

Создавать темы 19-Ноя-2018 11:37

[Цитировать]

Пансион / Boarding School Год выпуска: 2018
Жанр: Ужасы
Выпущено: США, Farcaster Films,Gigantic Pictures,Maven Pictures
Режиссер: Боаз Якин
В ролях: Люк Праель, Стерлинг Джеринс, Уилл Пэттон, Коби Джордж, Кадин Джордж, Николас Оливери, Саманта Мэтис, Роберт Джон Бёрк, Надя Александр, Люси Уолтерс
О фильме: После смерти своей бабушки, Джейкоб стал одержим идеей во всём походить на неё. Из-за этого его родители были вынуждены отправить его в закрытую школу, где всё подчиняется лишь прихоти её загадочного и жестокого хозяина.

Качество: WEB-DLRip AVC
Видео: MPEG-4 AVC, 51292 013 Кбит/с, 1024x576
Аудио: Русский (AC3, 2 ch, 192 Кбит/с), анлгийский (AC3, 6 ch, 448 Кбит/с)
Продолжительность: 01:51:48
Перевод: Профессиональный многоголосый [HDrezka Studio]
Субтитры: Английские

Скриншоты

MediaInfo

Общее
Уникальный идентификатор : 291779451154704347232396446652547994422 (0xDB82AD9F67968F60C0FA4090CF041336)
Полное имя : D:\Boarding.School.2018.WEB-DLRip(AVC).OlLanDGroup.mkv
Формат : Matroska
Версия формата : Version 4 / Version 2
Размер файла : 1,46 Гбайт
Продолжительность : 1 ч. 51 м.
Общий поток : 1869 Кбит/сек
Название фильма : Boarding.School.2018 #TorpedoUK#
Дата кодирования : UTC 2018-09-10 02:45:58
Программа кодирования : mkvmerge v25.0.0 ('Prog Noir') 64-bit
Библиотека кодирования : libebml v1.3.6 + libmatroska v1.4.9
Видео
Идентификатор : 1
Формат : AVC
Формат/Информация : Advanced Video Codec
Профиль формата : High@L4.1
Настройки формата : CABAC / 10 Ref Frames
Параметр CABAC формата : Да
Параметр RefFrames формата : 10 кадров
Идентификатор кодека : V_MPEG4/ISO/AVC
Продолжительность : 1 ч. 51 м.
Битрейт : 1292 Кбит/сек
Ширина : 1024 пикселя
Высота : 576 пикселей
Соотношение сторон : 16:9
Режим частоты кадров : Постоянный
Частота кадров : 23,976 (24000/1001) кадра/сек
Цветовое пространство : YUV
Субдискретизация насыщенности : 4:2:0
Битовая глубина : 8 бит
Тип развёртки : Прогрессивная
Бит/(Пиксели*Кадры) : 0.091
Размер потока : 1005 Мбайт (67%)
Библиотека кодирования : x264 core 146 r2538 121396c
Настройки программы : cabac=1 / ref=10 / deblock=1:-2:-3 / analyse=0x3:0x113 / me=umh / subme=10 / psy=1 / psy_rd=0.95:0.07 / mixed_ref=1 / me_range=48 / chroma_me=1 / trellis=2 / 8x8dct=1 / cqm=0 / deadzone=21,11 / fast_pskip=1 / chroma_qp_offset=-3 / threads=6 / lookahead_threads=1 / sliced_threads=0 / nr=0 / decimate=1 / interlaced=0 / bluray_compat=0 / constrained_intra=0 / bframes=10 / b_pyramid=2 / b_adapt=2 / b_bias=0 / direct=3 / weightb=1 / open_gop=0 / weightp=2 / keyint=240 / keyint_min=23 / scenecut=40 / intra_refresh=0 / rc_lookahead=40 / rc=2pass / mbtree=0 / bitrate=1292 / ratetol=1.0 / qcomp=0.60 / qpmin=0 / qpmax=69 / qpstep=4 / cplxblur=20.0 / qblur=0.5 / vbv_maxrate=50000 / vbv_bufsize=62500 / nal_hrd=none / filler=0 / ip_ratio=1.40 / pb_ratio=1.30 / aq=1:1.00
Default : Да
Forced : Нет
Аудио #1
Идентификатор : 2
Формат : AC-3
Формат/Информация : Audio Coding 3
Идентификатор кодека : A_AC3
Продолжительность : 1 ч. 51 м.
Вид битрейта : Постоянный
Битрейт : 192 Кбит/сек
Каналы : 2 канала
Расположение каналов : Front: L R
Частота : 48,0 КГц
Частота кадров : 31,250 кадров/сек (1536 SPF)
Битовая глубина : 16 бит
Метод сжатия : С потерями
Размер потока : 154 Мбайт (10%)
Заголовок : MVO [HDrezka Studio]
Язык : Russian
ServiceKind/String : Complete Main
Default : Да
Forced : Нет
Аудио #2
Идентификатор : 3
Формат : AC-3
Формат/Информация : Audio Coding 3
Идентификатор кодека : A_AC3
Продолжительность : 1 ч. 51 м.
Вид битрейта : Постоянный
Битрейт : 384 Кбит/сек
Каналы : 6 каналов
Расположение каналов : Front: L C R, Side: L R, LFE
Частота : 48,0 КГц
Частота кадров : 31,250 кадров/сек (1536 SPF)
Битовая глубина : 16 бит
Метод сжатия : С потерями
Размер потока : 307 Мбайт (21%)
Заголовок : [Original]
Язык : English
ServiceKind/String : Complete Main
Default : Нет
Forced : Нет
Текст
Идентификатор : 4
Формат : UTF-8
Идентификатор кодека : S_TEXT/UTF8
Идентификатор кодека/Информация : UTF-8 Plain Text
Заголовок : SDH
Язык : English
Default : Нет
Forced : Нет
Меню
00:00:00.000 : en:1
00:07:19.397 : en:2
00:13:32.269 : en:3
00:21:06.264 : en:4
00:28:05.600 : en:5
00:33:59.370 : en:6
00:43:18.595 : en:7
00:47:08.700 : en:8
00:56:29.635 : en:9
01:02:31.330 : en:10
01:10:25.387 : en:11
01:16:08.104 : en:12
01:20:40.042 : en:13
01:32:23.787 : en:14
01:39:43.977 : en:15
01:42:33.730 : en:16
[Профиль] [ЛС]
Показать сообщения:    
Ответить на тему

Текущее время: 16-Фев 21:34

Часовой пояс: UTC + 3



Вы не можете начинать темы
Вы не можете отвечать на сообщения
Вы не можете редактировать свои сообщения
Вы не можете удалять свои сообщения
Вы не можете голосовать в опросах
Вы не можете прикреплять файлы к сообщениям
Вы не можете скачивать файлы