Мир Юрского периода (Дилогия) / Jurassic World: Dilogy (2015-2018) BDRip

Reply to topic
 
Author Message

Monk ®

Gender: Male

Longevity: 11 months 2 days

Posts: 8973

Location: Казань

Post 19-Nov-2018 12:06

[Quote]

Мир Юрского периода (Дилогия) / Jurassic World: Dilogy Год выпуска: 2018
Жанр: Фантастика, боевик, приключения
Выпущено: США, Испания, Universal Pictures
Режиссер: Колин Треворроу, Хуан Антонио Байона
В ролях: Крис Прэтт, Брайс Даллас Ховард, Ник Дж. Робинсон, Тай Симпкинс, Винсент Д`Онофрио, Ирфан Кхан, Омар Си, Б. Д. Вонг, Джейк Джонсон, Джуди Грир, Кэти МакГрат, Лорен Лапкус, Брайан Ти, Энди Бакли, Эрик Эдельштейн, Кортни Дж. Кларк, Колби Бутман-Шепарт, Джимми Фэллон, Джеймс ДюМонт, Мэттью Бурк
О фильме: 1.События фильма происходят спустя 22 года после того, как Парк Юрского периода был закрыт от глаз простых туристов. Сейчас на его месте, на острове Фублар, ведет свою работу новый парк. Он был задуман еще Джоном Хэммондом, и вот теперь его наработки наконец воплотились в жизнь. Тематический парк не так сильно востребован, как того хотелось его владельцам, поэтому они разработали стратегию с целью увеличения посещаемости этой территории. В центре парка руководство решило разместить новый уникальный аттракцион, аналогов которому еще не было. С его помощью, как надеются владельцы парковой территории, количество посетителей должно увеличиться в десятки раз. Правда, они немного не рассчитали, что эти хищные животные, которых будут рассматривать люди, могут без особого труда выбраться из клетки, что приведет к фатальным последствиям.2. На острове Исла-Нублар, где не так давно располагался парк развлечений с динозаврами, правит бал дикая природа. Но без людей все далеко не так спокойно, как могло бы показаться. Основатели парка приняли решение построить его, несмотря на активный вулкан, расположенный в сердце острова. Вулкан пробудился и рискует потопить остров в лаве. Управляющая парка Клэр Дэринг уговаривает дрессировщика Оуэна Грэди вернуться в бывший парк и спасти динозавров от неминуемой гибели.

Качество: BDRip
Видео: XviD, ~ 2000 Кбит/с, 720x304, 704х352
Аудио: Русский (AC3, 6 ch, 448 Кбит/с)
Продолжительность: 02:04:13 + 02:08:10
Перевод: Дублированный
Субтитры: Русские форсированные

Релиз

Лицензия BD EUR
Субтитры: Русские (полные, форсированные), Английские (полные, SDH).
Раздача от Олечки!
Файлы для объеденения взяты с релиз-группы Megapeer.ru + другие источники

Интересно

После релиза третьей части франшизы в 2001-ом году, работа над продолжением застыла более чем на десять лет. В 2011 году на Comic-Con в Сан-Диего, Стивен Спилберг сообщил, что ведется работа над сценарием четвертой части.
Первоначальное название фильма было "Парк Юрского периода 4: Исчезновение". Но в сентябре 2013 года фильм переименовали в "Мир Юрского периода".
Данный фильм франшизы будет первой лентой, в создании которой не принимала участие Кэтлин Кеннеди, работавшая над большинством проектов Стивена Спилберга
Съемки фильма проходили на Гавайях.
Джош Бролин первоначально рассматривался на роль Оуэна, но в итоге роль досталась Крису Пратту.

Содержание

Мир Юрского периода / Jurassic World Тысячи людей спешат увидеть Мир Юрского периода, но безопасное на первый взгляд развлечение может обернуться угрозой для их жизней…
Мир Юрского периода 2 /Jurassic.World.Fallen.Kingdom На острове Исла-Нублар, где не так давно располагался парк развлечений с динозаврами, правит бал дикая природа. Но без людей все далеко не так спокойно, как могло бы показаться. Основатели парка приняли решение построить его, несмотря на активный вулкан, расположенный в сердце острова. Вулкан пробудился и рискует потопить остров в лаве. Управляющая парка Клэр Дэринг уговаривает дрессировщика Оуэна Грэди вернуться в бывший парк и спасти динозавров от неминуемой гибели.

Скриншоты



MediaInfo 1

Общее
Полное имя : F:\Jurassic.World.Dilogy.2015-2018.BDRip.2.18Gb.Dub\Jurassic World.2015.BDRip.2.18Gb.Dub.avi
Формат : AVI
Формат/Информация : Audio Video Interleave
Профиль формата : OpenDML
Размер файла : 2,18 Гбайт
Продолжительность : 2 ч. 4 м.
Общий поток : 2512 Кбит/сек
Название фильма : Jurassic World (2015) by Colin Trevorrow
Режиссёр : HRIME
Программа кодирования : VirtualDubMod 1.5.10.2 (build 2542/release)
Авторское право : HQ-ViDEO
Примечание : 29.09.2015
Видео
Идентификатор : 0
Формат : MPEG-4 Visual
Профиль формата : Advanced Simple@L5
Параметр BVOP формата : 2
Параметр QPel формата : Нет
Параметр GMC формата : Без точки перехода
Параметр матрицы формата : Выборочная
Идентификатор кодека : XVID
Идентификатор кодека/Подсказка : XviD
Продолжительность : 2 ч. 4 м.
Битрейт : 2053 Кбит/сек
Ширина : 704 пикселя
Высота : 352 пикселя
Соотношение сторон : 2,000
Частота кадров : 23,976 кадра/сек
Цветовое пространство : YUV
Субдискретизация насыщенности : 4:2:0
Битовая глубина : 8 бит
Тип развёртки : Прогрессивная
Метод сжатия : С потерями
Бит/(Пиксели*Кадры) : 0.345
Размер потока : 1,78 Гбайт (82%)
Библиотека кодирования : XviD 67
Аудио
Идентификатор : 1
Формат : AC-3
Формат/Информация : Audio Coding 3
Расширение режима : CM (complete main)
Параметр Endianness формата : Big
Идентификатор кодека : 2000
Продолжительность : 2 ч. 4 м.
Вид битрейта : Постоянный
Битрейт : 448 Кбит/сек
Каналы : 6 каналов
Расположение каналов : Front: L C R, Side: L R, LFE
Частота : 48,0 КГц
Метод сжатия : С потерями
Размер потока : 398 Мбайт (18%)
Выравнивание : Разделение по промежуткам
Продолжительность промежутка : 42 мс. (1,00 видеокадр)
Время предзагрузки промежутка : 500 мс.

MediaInfo 2

Общее
Полное имя : F:\Jurassic.World.Dilogy.2015-2018.BDRip.2.18Gb.Dub\Jurassic.World.Fallen.Kingdom.2018.BDRip.2.18Gb.Dub.avi
Формат : AVI
Формат/Информация : Audio Video Interleave
Профиль формата : OpenDML
Размер файла : 2,18 Гбайт
Продолжительность : 2 ч. 8 м.
Общий поток : 2436 Кбит/сек
Программа кодирования : VirtualDubMod 1.5.10.3 | www.virtualdub-fr.org || (build 2550/release)
Библиотека кодирования : VirtualDubMod build 2550/release
Видео
Идентификатор : 0
Формат : MPEG-4 Visual
Профиль формата : Advanced Simple@L5
Параметр BVOP формата : 1
Параметр QPel формата : Нет
Параметр GMC формата : Без точки перехода
Параметр матрицы формата : Выборочная
Идентификатор кодека : XVID
Идентификатор кодека/Подсказка : XviD
Продолжительность : 2 ч. 8 м.
Битрейт : 1976 Кбит/сек
Ширина : 720 пикселей
Высота : 304 пикселя
Соотношение сторон : 2,35:1
Частота кадров : 23,976 кадра/сек
Цветовое пространство : YUV
Субдискретизация насыщенности : 4:2:0
Битовая глубина : 8 бит
Тип развёртки : Прогрессивная
Метод сжатия : С потерями
Бит/(Пиксели*Кадры) : 0.376
Размер потока : 1,77 Гбайт (81%)
Библиотека кодирования : XviD 73
Аудио
Идентификатор : 1
Формат : AC-3
Формат/Информация : Audio Coding 3
Расширение режима : CM (complete main)
Параметр Endianness формата : Big
Идентификатор кодека : 2000
Продолжительность : 2 ч. 8 м.
Вид битрейта : Постоянный
Битрейт : 448 Кбит/сек
Каналы : 6 каналов
Расположение каналов : Front: L C R, Side: L R, LFE
Частота : 48,0 КГц
Метод сжатия : С потерями
Размер потока : 411 Мбайт (18%)
Выравнивание : Разделение по промежуткам
Продолжительность промежутка : 42 мс. (1,00 видеокадр)
Время предзагрузки промежутка : 500 мс.
[Profile] [PM]
Display posts:    
Reply to topic

Current time is: 16-Oct 13:53

All times are UTC + 3



You cannot post new topics in this forum
You cannot reply to topics in this forum
You cannot edit your posts in this forum
You cannot delete your posts in this forum
You cannot vote in polls in this forum
You cannot attach files in this forum
You cannot download files in this forum