Мир Юрского периода (Дилогия) / Jurassic World: Dilogy (2015-2018) BDRip 720p

Ответить на тему
 
Автор Сообщение

Monk ®

Пол: Мужской

Стаж: 4 месяца 7 дней

Сообщений: 4235

Откуда: Казань

Создавать темы 19-Ноя-2018 12:08

[Цитировать]

Мир Юрского периода (Дилогия) / Jurassic World: Dilogy Год выпуска: 2018
Жанр: Фантастика, боевик, приключения
Выпущено: США, Испания, Universal Pictures
Режиссер: Колин Треворроу, Хуан Антонио Байона
В ролях: Крис Прэтт, Брайс Даллас Ховард, Ник Дж. Робинсон, Тай Симпкинс, Винсент Д`Онофрио, Ирфан Кхан, Омар Си, Б. Д. Вонг, Джейк Джонсон, Джуди Грир, Кэти МакГрат, Лорен Лапкус, Брайан Ти, Энди Бакли, Эрик Эдельштейн, Кортни Дж. Кларк, Колби Бутман-Шепарт, Джимми Фэллон, Джеймс ДюМонт, Мэттью Бурк
О фильме: 1.События фильма происходят спустя 22 года после того, как Парк Юрского периода был закрыт от глаз простых туристов. Сейчас на его месте, на острове Фублар, ведет свою работу новый парк. Он был задуман еще Джоном Хэммондом, и вот теперь его наработки наконец воплотились в жизнь. Тематический парк не так сильно востребован, как того хотелось его владельцам, поэтому они разработали стратегию с целью увеличения посещаемости этой территории. В центре парка руководство решило разместить новый уникальный аттракцион, аналогов которому еще не было. С его помощью, как надеются владельцы парковой территории, количество посетителей должно увеличиться в десятки раз. Правда, они немного не рассчитали, что эти хищные животные, которых будут рассматривать люди, могут без особого труда выбраться из клетки, что приведет к фатальным последствиям.2. На острове Исла-Нублар, где не так давно располагался парк развлечений с динозаврами, правит бал дикая природа. Но без людей все далеко не так спокойно, как могло бы показаться. Основатели парка приняли решение построить его, несмотря на активный вулкан, расположенный в сердце острова. Вулкан пробудился и рискует потопить остров в лаве. Управляющая парка Клэр Дэринг уговаривает дрессировщика Оуэна Грэди вернуться в бывший парк и спасти динозавров от неминуемой гибели.

Качество: BDRip 720p
Видео: MPEG-4 AVC, 5213-7746 Кбит/с, 1280x536, 1280х640
Аудио: Русский (DTS, 6 ch, 768 Кбит/с), (AC3, 6 ch, 640 Кбит/с), украинский (AC3, 2 ch, 192 Кбит/с), английский (AC3, 6 ch, 640 Кбит/с) (DTS, 6 ch, 1509 Кбит/с)
Продолжительность: 02:04:13 + 02:08:10
Перевод: Дублированный, авторский
Субтитры: Русские, английские, украинские

Релиз

Лицензия BD EUR от HELLYWOOD
Перевод: Дубляж [Blu-ray CEE] , Авторский (Гаврилов)
Субтитры: Русские (полные + форс.), украинские (полные + форс.), английские (Full + SDH + SDH-Colored)

Интересно

После релиза третьей части франшизы в 2001-ом году, работа над продолжением застыла более чем на десять лет. В 2011 году на Comic-Con в Сан-Диего, Стивен Спилберг сообщил, что ведется работа над сценарием четвертой части.
Первоначальное название фильма было "Парк Юрского периода 4: Исчезновение". Но в сентябре 2013 года фильм переименовали в "Мир Юрского периода".
Данный фильм франшизы будет первой лентой, в создании которой не принимала участие Кэтлин Кеннеди, работавшая над большинством проектов Стивена Спилберга
Съемки фильма проходили на Гавайях.
Джош Бролин первоначально рассматривался на роль Оуэна, но в итоге роль досталась Крису Пратту.

Содержание

Мир Юрского периода / Jurassic World Тысячи людей спешат увидеть Мир Юрского периода, но безопасное на первый взгляд развлечение может обернуться угрозой для их жизней…
Мир Юрского периода 2 /Jurassic.World.Fallen.Kingdom На острове Исла-Нублар, где не так давно располагался парк развлечений с динозаврами, правит бал дикая природа. Но без людей все далеко не так спокойно, как могло бы показаться. Основатели парка приняли решение построить его, несмотря на активный вулкан, расположенный в сердце острова. Вулкан пробудился и рискует потопить остров в лаве. Управляющая парка Клэр Дэринг уговаривает дрессировщика Оуэна Грэди вернуться в бывший парк и спасти динозавров от неминуемой гибели.

Скриншоты



MediaInfo

Общее
Уникальный идентификатор : 248414859227144514743260856808038677466 (0xBAE2F62B863F89E9884288F35CDF3BDA)
Полное имя : D:\Mir.Yurskogo.Perioda.Dilogy.720p.[2015-2018]-HELLYWOOD\1#Mir.Yurskogo.Perioda.2015.DUAL.BDRip.720p.-HELLYWOOD.mkv
Формат : Matroska
Версия формата : Version 4 / Version 2
Размер файла : 8,51 Гбайт
Продолжительность : 2 ч. 4 м.
Общий поток : 9793 Кбит/сек
Название фильма : Jurassic World (2015)
Дата кодирования : UTC 2018-09-28 07:13:34
Программа кодирования : mkvmerge v5.9.0 ('On The Loose') built on Dec 15 2012 16:39:58
Библиотека кодирования : libebml v1.3.0 + libmatroska v1.4.0
Видео
Идентификатор : 1
Формат : AVC
Формат/Информация : Advanced Video Codec
Профиль формата : High@L4.1
Настройки формата : CABAC / 9 Ref Frames
Параметр CABAC формата : Да
Параметр RefFrames формата : 9 кадров
Идентификатор кодека : V_MPEG4/ISO/AVC
Продолжительность : 2 ч. 4 м.
Битрейт : 7746 Кбит/сек
Ширина : 1280 пикселей
Высота : 640 пикселей
Соотношение сторон : 2,000
Режим частоты кадров : Постоянный
Частота кадров : 23,976 (24000/1001) кадра/сек
Цветовое пространство : YUV
Субдискретизация насыщенности : 4:2:0
Битовая глубина : 8 бит
Тип развёртки : Прогрессивная
Бит/(Пиксели*Кадры) : 0.394
Размер потока : 6,56 Гбайт (77%)
Заголовок : potroks
Библиотека кодирования : x264 core 148 r2597M e86f3a1
Настройки программы : cabac=1 / ref=9 / deblock=1:-3:-3 / analyse=0x3:0x133 / me=umh / subme=11 / psy=1 / psy_rd=1.00:0.00 / mixed_ref=1 / me_range=48 / chroma_me=1 / trellis=2 / 8x8dct=1 / cqm=0 / deadzone=21,11 / fast_pskip=0 / chroma_qp_offset=-2 / threads=10 / lookahead_threads=2 / sliced_threads=0 / nr=0 / decimate=1 / interlaced=0 / bluray_compat=0 / constrained_intra=0 / bframes=10 / b_pyramid=2 / b_adapt=2 / b_bias=0 / direct=3 / weightb=1 / open_gop=0 / weightp=2 / keyint=250 / keyint_min=23 / scenecut=40 / intra_refresh=0 / rc=2pass / mbtree=0 / bitrate=7746 / ratetol=1.0 / qcomp=0.70 / qpmin=0 / qpmax=69 / qpstep=4 / cplxblur=20.0 / qblur=0.5 / ip_ratio=1.40 / pb_ratio=1.30 / aq=1:0.80
Язык : English
Default : Да
Forced : Нет
Аудио #1
Идентификатор : 2
Формат : DTS
Формат/Информация : Digital Theater Systems
Идентификатор кодека : A_DTS
Продолжительность : 2 ч. 4 м.
Вид битрейта : Постоянный
Битрейт : 768 Кбит/сек
Каналы : 6 каналов
Расположение каналов : Front: L C R, Side: L R, LFE
Частота : 48,0 КГц
Частота кадров : 93,750 кадра/сек (512 SPF)
Битовая глубина : 24 бит
Метод сжатия : С потерями
Размер потока : 683 Мбайт (8%)
Заголовок : Dub | DTS 5.1 @ 768 kbps - Blu-Ray CEE
Язык : Russian
Default : Да
Forced : Нет
Аудио #2
Идентификатор : 3
Формат : AC-3
Формат/Информация : Audio Coding 3
Идентификатор кодека : A_AC3
Продолжительность : 2 ч. 4 м.
Вид битрейта : Постоянный
Битрейт : 640 Кбит/сек
Каналы : 6 каналов
Расположение каналов : Front: L C R, Side: L R, LFE
Частота : 48,0 КГц
Частота кадров : 31,250 кадров/сек (1536 SPF)
Битовая глубина : 16 бит
Метод сжатия : С потерями
Размер потока : 569 Мбайт (7%)
Заголовок : AVO | DD 5.1 @ 640 kbps - A.Gavrilov
Язык : Russian
ServiceKind/String : Complete Main
Default : Нет
Forced : Нет
Аудио #3
Идентификатор : 4
Формат : AC-3
Формат/Информация : Audio Coding 3
Идентификатор кодека : A_AC3
Продолжительность : 2 ч. 4 м.
Вид битрейта : Постоянный
Битрейт : 640 Кбит/сек
Каналы : 6 каналов
Расположение каналов : Front: L C R, Side: L R, LFE
Частота : 48,0 КГц
Частота кадров : 31,250 кадров/сек (1536 SPF)
Битовая глубина : 16 бит
Метод сжатия : С потерями
Размер потока : 569 Мбайт (7%)
Заголовок : Original | DD 5.1 @ 640 kbps
Язык : English
ServiceKind/String : Complete Main
Default : Нет
Forced : Нет
Текст #1
Идентификатор : 5
Формат : UTF-8
Идентификатор кодека : S_TEXT/UTF8
Идентификатор кодека/Информация : UTF-8 Plain Text
Заголовок : Forced
Язык : Russian
Default : Да
Forced : Нет
Текст #2
Идентификатор : 6
Формат : UTF-8
Идентификатор кодека : S_TEXT/UTF8
Идентификатор кодека/Информация : UTF-8 Plain Text
Заголовок : Blu-Ray
Язык : Russian
Default : Нет
Forced : Нет
Текст #3
Идентификатор : 7
Формат : UTF-8
Идентификатор кодека : S_TEXT/UTF8
Идентификатор кодека/Информация : UTF-8 Plain Text
Заголовок : Forced
Язык : Ukrainian
Default : Нет
Forced : Нет
Текст #4
Идентификатор : 8
Формат : UTF-8
Идентификатор кодека : S_TEXT/UTF8
Идентификатор кодека/Информация : UTF-8 Plain Text
Заголовок : Blu-Ray
Язык : Ukrainian
Default : Нет
Forced : Нет
Текст #5
Идентификатор : 9
Формат : UTF-8
Идентификатор кодека : S_TEXT/UTF8
Идентификатор кодека/Информация : UTF-8 Plain Text
Заголовок : Full
Язык : English
Default : Нет
Forced : Нет
Текст #6
Идентификатор : 10
Формат : UTF-8
Идентификатор кодека : S_TEXT/UTF8
Идентификатор кодека/Информация : UTF-8 Plain Text
Заголовок : SDH
Язык : English
Default : Нет
Forced : Нет
Текст #7
Идентификатор : 11
Формат : UTF-8
Идентификатор кодека : S_TEXT/UTF8
Идентификатор кодека/Информация : UTF-8 Plain Text
Заголовок : SDH-Colored
Язык : English
Default : Нет
Forced : Нет
Меню
00:00:00.000 : :(01)00:00:00:000
00:06:59.168 : :(02)00:06:59:168
00:11:01.827 : :(03)00:11:01:827
00:18:28.440 : :(04)00:18:28:440
00:25:34.866 : :(05)00:25:34:866
00:31:20.837 : :(06)00:31:20:837
00:39:23.861 : :(07)00:39:23:861
00:44:07.853 : :(08)00:44:07:853
00:48:57.225 : :(09)00:48:57:225
00:55:51.056 : :(10)00:55:51:056
01:01:21.344 : :(11)01:01:21:344
01:09:50.560 : :(12)01:09:50:561
01:15:25.479 : :(13)01:15:25:479
01:23:51.860 : :(14)01:23:51:860
01:30:14.700 : :(15)01:30:14:700
01:36:45.424 : :(16)01:36:45:424
01:41:15.652 : :(17)01:41:15:652
01:47:35.282 : :(18)01:47:35:282
01:53:06.029 : :(19)01:53:06:029
01:55:37.555 : :(20)01:55:37:555
[Профиль] [ЛС]
Показать сообщения:    
Ответить на тему

Текущее время: 22-Мар 10:25

Часовой пояс: UTC + 3



Вы не можете начинать темы
Вы не можете отвечать на сообщения
Вы не можете редактировать свои сообщения
Вы не можете удалять свои сообщения
Вы не можете голосовать в опросах
Вы не можете прикреплять файлы к сообщениям
Вы не можете скачивать файлы