Урфин Джюс возвращается (2019) WEB-DLRip от Files-x | iTunes

Reply to topic
 
Author Message

bond74 ®

Gender: Male

Longevity: 1 year 10 months

Posts: 862

Post 08-Aug-2020 13:14

[Quote]

Урфин Джюс возвращается
Год выпуска: 2019
Жанр: Мультфильм
Выпущено: Россия, «Кинокомпания CTB», Анимационная студия «Мельница»
Режиссер: Федор Дмитриев
В ролях: Константин Хабенский, Екатерина Гороховская, Александр Быковский, Дмитрий Высоцкий (II), Дмитрий Дюжев, Андрей Лёвин, Юлия Рудина, Мария Цветкова-Овсянникова, Максим Сергеев, Валерий Соловьёв
О фильме: Элли и ее верный пес Тотошка снова оказываются в Волшебной стране в самое подходящее время. Власть в Изумрудном городе опять пытается захватить коварный Урфин Джюс, который хоть и потерял армию деревянных солдат, но не отказался от своей вредной привычки - портить всем жизнь. В руках Урфина теперь волшебная книга колдуньи Гингемы, которая исполняет любое желание ее хозяина, а значит, Страшила Мудрый, Храбрый Лев и Железный Дровосек в опасности. Элли, Тотошка и их новый приятель Тим решают помочь жителям Волшебной страны. Тем более, Тиму нравится Элли, а что не сделаешь ради любви? Например, глупость. Но ошибки совершает каждый, а вот исправлять их умеют немногие.Любить их всех.

Качество: WEB-DLRip
Видео: XviD, ~ 2288 Кбит/с, 720x304, 25 кадр/с
Аудио: AC3, 6 ch, 384 Кбит/с
Продолжительность: 01:13:18
Перевод: Не требуется [Русский] | iTunes
Cубтитры: нет

Скриншоты

MediaInfo

General
Complete name : F:\56345\Урфин Джюс возвращается.2019.WEB-DLRip. Files-x.avi
Format : AVI
Format/Info : Audio Video Interleave
File size : 1.37 GiB
Duration : 1h 13mn
Overall bit rate : 2 681 Kbps
Writing application : VirtualDubMod 1.5.10.3 | www.virtualdub-fr.org || (build 2550/release)
Writing library : VirtualDubMod build 2550/release
Video
ID : 0
Format : MPEG-4 Visual
Format profile : Advanced Simple@L5
Format settings, BVOP : 1
Format settings, QPel : No
Format settings, GMC : No warppoints
Format settings, Matrix : Custom
Codec ID : XVID
Codec ID/Hint : XviD
Duration : 1h 13mn
Bit rate : 2 288 Kbps
Width : 720 pixels
Height : 304 pixels
Display aspect ratio : 2.35:1
Frame rate : 25.000 fps
Color space : YUV
Chroma subsampling : 4:2:0
Bit depth : 8 bits
Scan type : Progressive
Compression mode : Lossy
Bits/(Pixel*Frame) : 0.418
Stream size : 1.17 GiB (85%)
Writing library : XviD 73
Audio
ID : 1
Format : AC-3
Format/Info : Audio Coding 3
Mode extension : CM (complete main)
Codec ID : 2000
Duration : 1h 13mn
Bit rate mode : Constant
Bit rate : 384 Kbps
Channel(s) : 6 channels
Channel positions : Front: L C R, Side: L R, LFE
Sampling rate : 48.0 KHz
Bit depth : 16 bits
Compression mode : Lossy
Stream size : 201 MiB (14%)
Alignment : Split accross interleaves
Interleave, duration : 40 ms (1.00 video frame)
Interleave, preload duration : 500 ms
Релиз от:

Release was prepared by RG Files-x

[Profile] [PM]
Display posts:    
Reply to topic

Current time is: 24-Sep 11:54

All times are UTC + 3



You cannot post new topics in this forum
You cannot reply to topics in this forum
You cannot edit your posts in this forum
You cannot delete your posts in this forum
You cannot vote in polls in this forum
You cannot attach files in this forum
You cannot download files in this forum