Желтый глаз тигра [1-16 серии из 16] (2018) HDTVRip от GeneralFilm

Reply to topic
 
Author Message

olegka7373 ®

Gender: Male

Longevity: 11 months 4 days

Posts: 219

Location: Россия, Новокузнецк

Post 20-Nov-2018 11:57

[Quote]

Желтый глаз тигра
Год выпуска: 2018
Жанр: Боевик, криминал
Выпущено: Россия, Профит
Режиссер: Марк Горобец
В ролях: Павел Прилучный, Карина Андоленко, Роман Курцын, Максим Костромыкин, Виталий Кищенко, Екатерина Буйлова, Иван Ивашкин, Маша Шерстобитова, Светлана Степанковская, Сергей Пускепалис, Евгения Добровольская, Агния Кузнецова, Катерина Шпица, Борис Каморзин, Лариса Шахворостова, Раиса Рязанова, Александра Ребенок, Игорь Филиппов, Юлия Агафонова, Александр Лымарев, Александр Никольский (II), Владимир Чуприков, Максим Глотов, Никита Абдулов, Сергей Друзьяк, Александра Скачкова, Александр Андриенко, Андрей Гусев, Арсений Васильевых, Евгений Мундум
О фильме: 1988 год, Калининград. Четверо лучших друзей отмечают школьный выпускной и делятся планами на будущее, мечтая связать свою жизнь с янтарем. Но янтарный бизнес превращает бывших юных мечтателей в алчных хладнокровных дельцов, не гнушающихся даже воровством и убийствами. Спустя 15 лет одному из героев придется бороться с друзьями юности, чтобы разоблачить преступную сеть и остановить «янтарный беспредел».

Качество: HDTVRip
Видео: XviD, ~ 1800 Кбит/с, 720x304
Аудио: Русский (AC3, 2 ch, 192 Кбит/с)
Продолжительность: 16 х ~ 00:47:00
Перевод: Не требуется
Субтитры: нет

Скриншоты


MediaInfo

Общее
Полное имя : D:\Zheltyj glaz tigra.HDTVRip.GeneralFilm\01.Zheltyj glaz tigra.HDTVRip.GeneralFilm.avi
Формат : AVI
Формат/Информация : Audio Video Interleave
Размер файла : 653 Мбайт
Продолжительность : 45 м. 54 с.
Общий поток : 1989 Кбит/сек
Программа кодирования : VirtualDubMod 1.5.10.3 | www.virtualdub-fr.org || (build 2550/release)
Библиотека кодирования : VirtualDubMod build 2550/release
Видео
Идентификатор : 0
Формат : MPEG-4 Visual
Профиль формата : Advanced Simple@L5
Параметр BVOP формата : 1
Параметр QPel формата : Нет
Параметр GMC формата : Без точки перехода
Параметр матрицы формата : Выборочная
Идентификатор кодека : XVID
Идентификатор кодека/Подсказка : XviD
Продолжительность : 45 м. 54 с.
Битрейт : 1787 Кбит/сек
Ширина : 720 пикселей
Высота : 304 пикселя
Соотношение сторон : 2,35:1
Частота кадров : 25,000 кадров/сек
Цветовое пространство : YUV
Субдискретизация насыщенности : 4:2:0
Битовая глубина : 8 бит
Тип развёртки : Прогрессивная
Метод сжатия : С потерями
Бит/(Пиксели*Кадры) : 0.327
Размер потока : 587 Мбайт (90%)
Библиотека кодирования : XviD 1.2.1 (UTC 2008-12-04)
Аудио
Идентификатор : 1
Формат : AC-3
Формат/Информация : Audio Coding 3
Расширение режима : CM (complete main)
Параметр Endianness формата : Big
Идентификатор кодека : 2000
Продолжительность : 45 м. 54 с.
Вид битрейта : Постоянный
Битрейт : 192 Кбит/сек
Каналы : 2 канала
Расположение каналов : Front: L R
Частота : 48,0 КГц
Частота кадров : 31,250 кадров/сек (1536 spf)
Битовая глубина : 16 бит
Метод сжатия : С потерями
Размер потока : 63,0 Мбайт (10%)
Выравнивание : Разделение по промежуткам
Продолжительность промежутка : 40 мс. (1,00 видеокадр)
Время предзагрузки промежутка : 500 мс.

Внимание! Раздача ведётся путём добавления новых серий

Раздача ведётся путём добавления новых серий, при каждом добавлении создаётся новый торрент. Чтобы начать докачку новой серии, пользователям необходимо сделать следующее:
- Остановить скачивание.
- Удалить старый торрент у себя из клиента (старые серии удалять не надо).
- Скачать новый торрент и запустить его у себя в клиенте вместо старого, при этом указать клиенту путь в старую папку куда и должно происходить скачивание новых серий.
Ваш клиент при этом должен произвести хеширование (проверку) старой папки (если не производит сам - помогите ему сделать это), и будет докачивать только те серии которых у вас ещё нет. Старые серии при этом не удаляются, а продолжают раздаваться!
Если вы уже удалили старые серии, то предотвратить повторную закачку старых серий можно, отжав галочку в соответствующих местах при запуске нового торрента. По возможности, желательно не удалять старые серии как можно дольше, чтобы релизер не столько продолжал раздавать старые серии, а смог сконцентрироваться на новых.
Релиз:


Last edited by olegka7373 on 2018-12-07 06:49; edited 13 times in total
[Profile] [PM]

AlexVipGold

Gender: Male

Longevity: 10 months 28 days

Posts: 3

Location: Орск

Post 20-Nov-2018 17:21 (after 5 hours)

[Quote]

olegka7373, Благодарю за раздачу! Будем посмотреть ))
[Profile] [PM]

Расторгуев

Gender: Male

Longevity: 10 months 28 days

Posts: 5

Location: CCCР

Post 26-Nov-2018 23:53 (after 6 days)

[Quote]

Спасибо.
[Profile] [PM]

Елена

Gender: Female

Longevity: 10 months 26 days

Posts: 2

Location: Клайпеда

Post 03-Dec-2018 20:13 (after 6 days)

[Quote]

спасибо aj
[Profile] [PM]
Display posts:    
Reply to topic

Current time is: 18-Oct 05:32

All times are UTC + 3



You cannot post new topics in this forum
You cannot reply to topics in this forum
You cannot edit your posts in this forum
You cannot delete your posts in this forum
You cannot vote in polls in this forum
You cannot attach files in this forum
You cannot download files in this forum