Желтый глаз тигра [1-16 серии из 16] (2018) HDTVRip 720p от GeneralFilm

Ответить на тему
 
Автор Сообщение

olegka7373 ®

Пол: Мужской

Стаж: 3 месяца 4 дня

Сообщений: 60

Откуда: Россия, Новокузнецк

Создавать темы 20-Ноя-2018 12:20

[Цитировать]

Желтый глаз тигра
Год выпуска: 2018
Жанр: Боевик, криминал
Выпущено: Россия, Профит
Режиссер: Марк Горобец
В ролях: Павел Прилучный, Карина Андоленко, Роман Курцын, Максим Костромыкин, Виталий Кищенко, Екатерина Буйлова, Иван Ивашкин, Маша Шерстобитова, Светлана Степанковская, Сергей Пускепалис, Евгения Добровольская, Агния Кузнецова, Катерина Шпица, Борис Каморзин, Лариса Шахворостова, Раиса Рязанова, Александра Ребенок, Игорь Филиппов, Юлия Агафонова, Александр Лымарев, Александр Никольский (II), Владимир Чуприков, Максим Глотов, Никита Абдулов, Сергей Друзьяк, Александра Скачкова, Александр Андриенко, Андрей Гусев, Арсений Васильевых, Евгений Мундум
О фильме: 1988 год, Калининград. Четверо лучших друзей отмечают школьный выпускной и делятся планами на будущее, мечтая связать свою жизнь с янтарем. Но янтарный бизнес превращает бывших юных мечтателей в алчных хладнокровных дельцов, не гнушающихся даже воровством и убийствами. Спустя 15 лет одному из героев придется бороться с друзьями юности, чтобы разоблачить преступную сеть и остановить «янтарный беспредел».

Качество: HDTVRip (720p)
Видео: MPEG-4 AVC, ~ 3500 Кбит/с, 1280x544, 25 fps
Аудио: Русский (AC3, 2 ch, 192 Кбит/с)
Продолжительность: 16 х ~ 00:47:00
Перевод: Не требуется
Субтитры: нет

Скриншоты


MediaInfo

Общее
Уникальный идентификатор : 220308797260231635719916218741583879339 (0xA5BDEE53C1FB3089911E50D2D4659CAB)
Полное имя : D:Zheltyj glaz tigra.HDTVRip.(720p).GeneralFilm1.Zheltyj glaz tigra.HDTVRip.(720p).GeneralFilm.mkv
Формат : Matroska
Версия формата : Version 2
Размер файла : 1,18 Гбайт
Продолжительность : 45 м. 54 с.
Общий поток : 3693 Кбит/сек
Дата кодирования : UTC 2018-11-20 04:00:19
Программа кодирования : mkvmerge v7.8.0 ('River Man') 32bit built on Apr 3 2015 12:11:22
Библиотека кодирования : libebml v1.3.1 + libmatroska v1.4.2
Видео
Идентификатор : 1
Формат : AVC
Формат/Информация : Advanced Video Codec
Профиль формата : High@L4.1
Параметр CABAC формата : Да
Параметр ReFrames формата : 9 кадров
Идентификатор кодека : V_MPEG4/ISO/AVC
Продолжительность : 45 м. 54 с.
Битрейт : 3500 Кбит/сек
Ширина : 1280 пикселей
Высота : 544 пикселя
Соотношение сторон : 2,35:1
Режим частоты кадров : Постоянный
Частота кадров : 25,000 кадров/сек
Цветовое пространство : YUV
Субдискретизация насыщенности : 4:2:0
Битовая глубина : 8 бит
Тип развёртки : Прогрессивная
Бит/(Пиксели*Кадры) : 0.201
Размер потока : 1,10 Гбайт (93%)
Библиотека кодирования : x264 core 146 r2538 121396c
Настройки программы : cabac=1 / ref=9 / deblock=1:-2:-1 / analyse=0x3:0x113 / me=umh / subme=9 / psy=1 / psy_rd=1.00:0.15 / mixed_ref=1 / me_range=32 / chroma_me=1 / trellis=2 / 8x8dct=1 / cqm=0 / deadzone=21,11 / fast_pskip=0 / chroma_qp_offset=-3 / threads=18 / lookahead_threads=3 / sliced_threads=0 / nr=0 / decimate=1 / interlaced=0 / bluray_compat=0 / constrained_intra=0 / bframes=9 / b_pyramid=2 / b_adapt=2 / b_bias=0 / direct=1 / weightb=1 / open_gop=0 / weightp=2 / keyint=250 / keyint_min=25 / scenecut=40 / intra_refresh=0 / rc_lookahead=40 / rc=2pass / mbtree=0 / bitrate=3500 / ratetol=1.0 / qcomp=0.60 / qpmin=0 / qpmax=69 / qpstep=4 / cplxblur=20.0 / qblur=0.5 / vbv_maxrate=14000 / vbv_bufsize=14000 / nal_hrd=none / filler=0 / ip_ratio=1.40 / pb_ratio=1.30 / aq=2:1.00
Default : Да
Forced : Нет
Цветовой диапазон : Limited
Основные цвета : BT.709
Характеристики трансфера : BT.709
Коэффициенты матрицы : BT.709
Аудио
Идентификатор : 2
Формат : AC-3
Формат/Информация : Audio Coding 3
Расширение режима : CM (complete main)
Параметр Endianness формата : Big
Идентификатор кодека : A_AC3
Продолжительность : 45 м. 54 с.
Вид битрейта : Постоянный
Битрейт : 192 Кбит/сек
Каналы : 2 канала
Расположение каналов : Front: L R
Частота : 48,0 КГц
Частота кадров : 31,250 кадров/сек (1536 spf)
Битовая глубина : 16 бит
Метод сжатия : С потерями
Размер потока : 63,0 Мбайт (5%)
Default : Да
Forced : Нет

Внимание! Раздача ведётся путём добавления новых серий

Раздача ведётся путём добавления новых серий, при каждом добавлении создаётся новый торрент. Чтобы начать докачку новой серии, пользователям необходимо сделать следующее:
- Остановить скачивание.
- Удалить старый торрент у себя из клиента (старые серии удалять не надо).
- Скачать новый торрент и запустить его у себя в клиенте вместо старого, при этом указать клиенту путь в старую папку куда и должно происходить скачивание новых серий.
Ваш клиент при этом должен произвести хеширование (проверку) старой папки (если не производит сам - помогите ему сделать это), и будет докачивать только те серии которых у вас ещё нет. Старые серии при этом не удаляются, а продолжают раздаваться!
Если вы уже удалили старые серии, то предотвратить повторную закачку старых серий можно, отжав галочку в соответствующих местах при запуске нового торрента. По возможности, желательно не удалять старые серии как можно дольше, чтобы релизер не столько продолжал раздавать старые серии, а смог сконцентрироваться на новых.
Релиз:
[Профиль] [ЛС]

Starik60

Пол: Мужской

Стаж: 3 месяца 5 дней

Сообщений: 113

Откуда: Москва, Россия

Создавать темы 07-Дек-2018 11:21 (спустя 16 дней)

[Цитировать]

[Профиль] [ЛС]
Показать сообщения:    
Ответить на тему

Текущее время: 17-Фев 19:57

Часовой пояс: UTC + 3



Вы не можете начинать темы
Вы не можете отвечать на сообщения
Вы не можете редактировать свои сообщения
Вы не можете удалять свои сообщения
Вы не можете голосовать в опросах
Вы не можете прикреплять файлы к сообщениям
Вы не можете скачивать файлы