Animal Planet. Зоопарк / The Bronx Zoo [1-8 серии из 8] (2016) HDTVRip от HitWay

Ответить на тему
 
Автор Сообщение

Starik60 ®

Пол: Мужской

Стаж: 3 месяца 4 дня

Сообщений: 111

Откуда: Москва, Россия

Создавать темы 20-Ноя-2018 14:00

[Цитировать]

Зоопарк / The Bronx Zoo
Год выпуска: 2016
Жанр: Документальный, животные
Выпущено: США, Discovery Communications, LLC.
О фильме: В городе, который никогда не спит, есть место, где жизнь всегда бьет ключом. И это известный во всем мире зоопарк Бронкса. Администрация зоопарка впервые позволила вести съемки на его территории, чтобы осветить роль зоологического парка в деле сохранения диких животных. Программа, над которой съемочная группа работала на протяжении восьми месяцев, показывает повседневную жизнь этого уникального объекта. Расположенный в 16 километрах от Таймс-Сквер, Бронксский зоопарк занимает около 107 гектаров, вмещает более 6000 животных, и в нем работает более 500 сотрудников. Вы узнаете истории разных обитателей зоопарка, включая самца гориллы, страдающего глаукомой, двух малайских тигрят, которых вырастили сотрудники и которые готовятся к переводу в вольер «Гора Тигров», а также осиротевшего детеныша снежного леопарда, спасенного в отдаленном районе Пакистана.

Качество: HDTVRip
Видео: XviD, ~ 1540 Кбит/с, 720x400
Аудио: AC3, 2 ch, 192 Кбит/с
Продолжительность: 8 x ~ 00:44:00
Перевод: Профессиональный (одноголосый, закадровый)

Скриншоты



MediaInfo

General
Complete name : H:\Раздачи 3\Зоопарк HitWay\01 Зоопарк HitWay.avi
Format : AVI
Format/Info : Audio Video Interleave
File size : 548 MiB
Duration : 43 min 54 s
Overall bit rate : 1 744 kb/s
Writing application : VirtualDubMod 1.5.10.3 | www.virtualdub-fr.org || (build 2550/release)
Writing library : VirtualDubMod build 2550/release
Video
ID : 0
Format : MPEG-4 Visual
Format profile : Advanced Simple@L5
Format settings : BVOP1 / Custom Matrix
Format settings, BVOP : 1
Format settings, QPel : No
Format settings, GMC : No warppoints
Format settings, Matrix : Custom
Codec ID : XVID
Codec ID/Hint : XviD
Duration : 43 min 54 s
Bit rate : 1 542 kb/s
Width : 720 pixels
Height : 400 pixels
Display aspect ratio : 16:9
Frame rate : 25.000 FPS
Color space : YUV
Chroma subsampling : 4:2:0
Bit depth : 8 bits
Scan type : Progressive
Compression mode : Lossy
Bits/(Pixel*Frame) : 0.214
Stream size : 484 MiB (88%)
Writing library : XviD 73
Audio
ID : 1
Format : AC-3
Format/Info : Audio Coding 3
Commercial name : Dolby Digital
Codec ID : 2000
Duration : 43 min 54 s
Bit rate mode : Constant
Bit rate : 192 kb/s
Channel(s) : 2 channels
Channel layout : L R
Sampling rate : 48.0 kHz
Frame rate : 31.250 FPS (1536 SPF)
Bit depth : 16 bits
Compression mode : Lossy
Stream size : 60.3 MiB (11%)
Alignment : Split accross interleaves
Interleave, duration : 40 ms (1.00 video frame)
Interleave, preload duratio : 500 ms
Service kind : Complete Main
Релиз от:
[Профиль] [ЛС]
Показать сообщения:    
Ответить на тему

Текущее время: 16-Фев 21:36

Часовой пояс: UTC + 3



Вы не можете начинать темы
Вы не можете отвечать на сообщения
Вы не можете редактировать свои сообщения
Вы не можете удалять свои сообщения
Вы не можете голосовать в опросах
Вы не можете прикреплять файлы к сообщениям
Вы не можете скачивать файлы