Animal Planet. Зоопарк / The Bronx Zoo [2 сезон: 1-10 серии из 10] (2018) HDTVRip от GeneralFilm

Reply to topic
 
Author Message

Starik60 ®

Gender: Male

Longevity: 10 months 5 days

Posts: 161

Location: Москва, Россия

Post 20-Nov-2018 14:17

[Quote]

Зоопарк / The Bronx Zoo
Год выпуска: 2018
Жанр: Документальный, животные
Выпущено: США, Discovery Communications, LLC.
О фильме: В городе, который никогда не спит, есть место, где жизнь всегда бьет ключом. И это известный во всем мире зоопарк Бронкса. Администрация зоопарка впервые позволила вести съемки на его территории, чтобы осветить роль зоологического парка в деле сохранения диких животных. Программа, над которой съемочная группа работала на протяжении восьми месяцев, показывает повседневную жизнь этого уникального объекта. Расположенный в 16 километрах от Таймс-Сквер, Бронксский зоопарк занимает около 107 гектаров, вмещает более 6000 животных, и в нем работает более 500 сотрудников. Вы узнаете истории разных обитателей зоопарка, включая самца гориллы, страдающего глаукомой, двух малайских тигрят, которых вырастили сотрудники и которые готовятся к переводу в вольер «Гора Тигров», а также осиротевшего детеныша снежного леопарда, спасенного в отдаленном районе Пакистана.

Качество: HDTVRip
Видео: XviD, ~ 1900 Кбит/с, 720x400
Аудио: AC3, 2 ch, 192 Кбит/с
Продолжительность: 10 x ~ 00:44:00
Перевод: Профессиональный (одноголосый, закадровый)

Скриншоты



MediaInfo

General
Complete name : H:\Раздачи 4\Зоопарк s02 GeneralFilm\01 Зоопарк s02 GeneralFilm.avi
Format : AVI
Format/Info : Audio Video Interleave
File size : 658 MiB
Duration : 43 min 50 s
Overall bit rate : 2 099 kb/s
Writing application : VirtualDubMod 1.5.10.3 | www.virtualdub-fr.org || (build 2550/release)
Writing library : VirtualDubMod build 2550/release
Video
ID : 0
Format : MPEG-4 Visual
Format profile : Advanced Simple@L5
Format settings : BVOP1 / Custom Matrix
Format settings, BVOP : 1
Format settings, QPel : No
Format settings, GMC : No warppoints
Format settings, Matrix : Custom
Codec ID : XVID
Codec ID/Hint : XviD
Duration : 43 min 50 s
Bit rate : 1 898 kb/s
Width : 720 pixels
Height : 400 pixels
Display aspect ratio : 16:9
Frame rate : 25.000 FPS
Color space : YUV
Chroma subsampling : 4:2:0
Bit depth : 8 bits
Scan type : Progressive
Compression mode : Lossy
Bits/(Pixel*Frame) : 0.264
Stream size : 595 MiB (90%)
Writing library : XviD 1.2.1 (UTC 2008-12-04)
Audio
ID : 1
Format : AC-3
Format/Info : Audio Coding 3
Commercial name : Dolby Digital
Codec ID : 2000
Duration : 43 min 50 s
Bit rate mode : Constant
Bit rate : 192 kb/s
Channel(s) : 2 channels
Channel layout : L R
Sampling rate : 48.0 kHz
Frame rate : 31.250 FPS (1536 SPF)
Bit depth : 16 bits
Compression mode : Lossy
Stream size : 60.2 MiB (9%)
Alignment : Split accross interleaves
Interleave, duration : 40 ms (1.00 video frame)
Interleave, preload duratio : 500 ms
Service kind : Complete Main

Название серий

01. Чудо-малыш.
02. Полярный медведь в городе.
03. Медведи остаются медведями.
04. Кенгуру Дэйв.
05. Роман толстых лори.
06. Доверие слона.
07. Встреча драконов.
08. Орёл приземлился.
09. Танец тигров.
10. Сердце гориллы.
Релиз от:
[Profile] [PM]
Display posts:    
Reply to topic

Current time is: 18-Sep 04:52

All times are UTC + 3



You cannot post new topics in this forum
You cannot reply to topics in this forum
You cannot edit your posts in this forum
You cannot delete your posts in this forum
You cannot vote in polls in this forum
You cannot attach files in this forum
You cannot download files in this forum