Захочу и соскочу: Мастер-класс / Smetto quando voglio: Masterclass (I Can Quit Whenever I Want: Masterclass) (2017) BDRip | iTunes

Reply to topic
 
Author Message

Monk ®

Gender: Male

Longevity: 1 year

Posts: 9115

Location: Казань

Post 21-Nov-2018 09:58

[Quote]

Захочу и соскочу. Мастер-класс / Smetto quando voglio: Masterclass Год выпуска: 2017
Жанр: Боевик, комедия, криминал
Выпущено: Италия, Groenlandia,Fandango,Rai Cinema
Режиссер: Сидней Сибилиа
В ролях: Эдоардо Лео, Валерио Эпри, Стефано Фрези, Паоло Калабрези, Либеро Де Риенцо, Лоренцо Лавиа, Пьетро Сермонти, Марко Бонини, Росарио Лисма, Джампаоло Морелли
О фильме: Когда-то талантливый нейробиолог Пьетро, уволенный из-за финансового кризиса, сколотил необычную банду из таких же, как он, ученых-неудачников. Они начали производить и продавать абсолютно легальные наркотики, поставив на уши всю римскую полицию. Теперь Пьетро в тюрьме и очень неплохо себя там чувствует, но полиция обращается к нему за помощью. И банда ученых собирается снова, еще лучше вооруженная, организованная и готовая к новым уморительно смешным приключениям.

Качество: BDRip
Видео: XviD, 1360 Кбит/с, 720х304, 24 кадр/с
Аудио: Русский (АС3, 6 ch, 384 Кбит/с)
Продолжительность: 01:59:21
Перевод: Профессиональный многоголосый [iTunes]

Скриншоты



MediaInfo

Общее
Полное имя : D:\Smetto.quando.voglio_Masterclass.2017.BDRip-ylnian.avi
Формат : AVI
Формат/Информация : Audio Video Interleave
Размер файла : 1,46 Гбайт
Продолжительность : 1 ч. 59 м.
Общий поток : 1753 Кбит/сек
Программа кодирования : VirtualDubMod 1.5.10.3 | www.virtualdub-fr.org || (build 2550/release)
Библиотека кодирования : VirtualDubMod build 2550/release
Видео
Идентификатор : 0
Формат : MPEG-4 Visual
Профиль формата : Advanced Simple@L5
Настройки формата : BVOP1 / Custom Matrix
Параметр BVOP формата : 1
Параметр QPel формата : Нет
Параметр GMC формата : Без точки перехода
Параметр матрицы формата : Выборочная
Идентификатор кодека : XVID
Идентификатор кодека/Подсказка : XviD
Продолжительность : 1 ч. 59 м.
Битрейт : 1360 Кбит/сек
Ширина : 720 пикселей
Высота : 304 пикселя
Соотношение сторон : 2,35:1
Частота кадров : 24,000 кадра/сек
Цветовое пространство : YUV
Субдискретизация насыщенности : 4:2:0
Битовая глубина : 8 бит
Тип развёртки : Прогрессивная
Метод сжатия : С потерями
Бит/(Пиксели*Кадры) : 0.259
Размер потока : 1,13 Гбайт (78%)
Библиотека кодирования : XviD 67
Аудио
Идентификатор : 1
Формат : AC-3
Формат/Информация : Audio Coding 3
Коммерческое название : Dolby Digital
Идентификатор кодека : 2000
Продолжительность : 1 ч. 59 м.
Вид битрейта : Постоянный
Битрейт : 384 Кбит/сек
Каналы : 6 каналов
Channel layout : L R C LFE Ls Rs
Частота : 48,0 КГц
Частота кадров : 31,250 кадров/сек (1536 SPF)
Битовая глубина : 16 бит
Метод сжатия : С потерями
Размер потока : 328 Мбайт (22%)
Выравнивание : Разделение по промежуткам
Продолжительность промежутка : 42 мс. (1,00 видеокадр)
Время предзагрузки промежутка : 500 мс.
ServiceKind/String : Complete Main
[Profile] [PM]
Display posts:    
Reply to topic

Current time is: 22-Nov 11:50

All times are UTC + 3



You cannot post new topics in this forum
You cannot reply to topics in this forum
You cannot edit your posts in this forum
You cannot delete your posts in this forum
You cannot vote in polls in this forum
You cannot attach files in this forum
You cannot download files in this forum