Захочу и соскочу: Мастер-класс / Smetto quando voglio: Masterclass (I Can Quit Whenever I Want: Masterclass) (2017) BDRip 1080p | iTunes

Reply to topic
 
Author Message

Monk ®

Gender: Male

Longevity: 7 months 12 days

Posts: 7143

Location: Казань

Post 21-Nov-2018 10:00

[Quote]

Захочу и соскочу. Мастер-класс / Smetto quando voglio: Masterclass Год выпуска: 2017
Жанр: Боевик, комедия, криминал
Выпущено: Италия, Groenlandia,Fandango,Rai Cinema
Режиссер: Сидней Сибилиа
В ролях: Эдоардо Лео, Валерио Эпри, Стефано Фрези, Паоло Калабрези, Либеро Де Риенцо, Лоренцо Лавиа, Пьетро Сермонти, Марко Бонини, Росарио Лисма, Джампаоло Морелли
О фильме: Когда-то талантливый нейробиолог Пьетро, уволенный из-за финансового кризиса, сколотил необычную банду из таких же, как он, ученых-неудачников. Они начали производить и продавать абсолютно легальные наркотики, поставив на уши всю римскую полицию. Теперь Пьетро в тюрьме и очень неплохо себя там чувствует, но полиция обращается к нему за помощью. И банда ученых собирается снова, еще лучше вооруженная, организованная и готовая к новым уморительно смешным приключениям.

Качество: BDRip 1080p
Видео: MPEG-4 AVC, 12500 Кбит/с, 1920x804, 24 кадр/с
Аудио: Русский (AC3, 6 ch, 384 Кбит/с), итальянский (DTS, 6 ch, 1344 Кбит/с)
Продолжительность: 01:59:21
Перевод: Профессиональный многоголосый [iTunes]
Субтитры: Итальянские, английские, испанские

Скриншоты



MediaInfo

---[Information] [22/05/2017 00:25:28] raw [info]: 1920x804p 1:1 @ 24/1 fps (cfr)
---[Information] [22/05/2017 00:25:28] x264 [info]: using SAR=1/1
---[Information] [22/05/2017 00:25:28] x264 [info]: using cpu capabilities: MMX2 SSE2Fast SSSE3 SSE4.2 AVX
---[Information] [22/05/2017 00:25:28] x264 [info]: profile High, level 4.1
---[Information] [22/05/2017 08:25:38] x264 [info]: frame I:1540 Avg QP:16.24 size:249595
---[Information] [22/05/2017 08:25:38] x264 [info]: frame P:36119 Avg QP:17.67 size:108555
---[Information] [22/05/2017 08:25:38] x264 [info]: frame B:134216 Avg QP:19.25 size: 51253
---[Information] [22/05/2017 08:25:38] x264 [info]: consecutive B-frames: 1.9% 2.7% 8.0% 12.2% 19.1% 46.2% 8.2% 1.8%
Общее
Уникальный идентификатор : 54551572770560192823205875681098706466 (0x290A40313B730B9AE46D311C7243AE22)
Полное имя : D:\Smetto.quando.voglio_Masterclass.2017.BDRip.1080p-ylnian.mkv
Формат : Matroska
Версия формата : Version 4
Размер файла : 11,9 Гбайт
Продолжительность : 1 ч. 59 м.
Общий поток : 14,2 Мбит/сек
Название фильма : Smetto.quando.voglio_Masterclass.2017.BDRip.1080p-ylnian
Дата кодирования : UTC 2018-12-13 07:55:55
Программа кодирования : mkvmerge v29.0.0 ('Like It Or Not') 64-bit
Библиотека кодирования : libebml v1.3.6 + libmatroska v1.4.9
Видео
Идентификатор : 1
Формат : AVC
Формат/Информация : Advanced Video Codec
Профиль формата : High@L4.1
Настройки формата : CABAC / 5 Ref Frames
Параметр CABAC формата : Да
Параметр RefFrames формата : 5 кадров
Идентификатор кодека : V_MPEG4/ISO/AVC
Продолжительность : 1 ч. 59 м.
Битрейт : 12,5 Мбит/сек
Ширина : 1920 пикселей
Высота : 804 пикселя
Соотношение сторон : 2,40:1
Режим частоты кадров : Постоянный
Частота кадров : 24,000 кадра/сек
Цветовое пространство : YUV
Субдискретизация насыщенности : 4:2:0
Битовая глубина : 8 бит
Тип развёртки : Прогрессивная
Бит/(Пиксели*Кадры) : 0.337
Размер потока : 10,4 Гбайт (88%)
Заголовок : Smetto.Quando.Voglio.Masterclass.2017.ITA.DTS.AC3.1080p.BluRay.x264-CRiME
Библиотека кодирования : x264 core 148 r2744 b97ae06
Настройки программы : cabac=1 / ref=5 / deblock=1:-3:-3 / analyse=0x3:0x133 / me=umh / subme=10 / psy=1 / psy_rd=0.95:0.00 / mixed_ref=1 / me_range=48 / chroma_me=1 / trellis=2 / 8x8dct=1 / cqm=0 / deadzone=21,11 / fast_pskip=0 / chroma_qp_offset=-2 / threads=12 / lookahead_threads=2 / sliced_threads=0 / nr=0 / decimate=1 / interlaced=0 / bluray_compat=0 / constrained_intra=0 / bframes=7 / b_pyramid=2 / b_adapt=2 / b_bias=0 / direct=3 / weightb=1 / open_gop=0 / weightp=2 / keyint=240 / keyint_min=24 / scenecut=40 / intra_refresh=0 / rc_lookahead=40 / rc=2pass / mbtree=0 / bitrate=12500 / ratetol=1.0 / qcomp=0.70 / qpmin=10 / qpmax=69 / qpstep=4 / cplxblur=20.0 / qblur=0.5 / vbv_maxrate=50000 / vbv_bufsize=50000 / nal_hrd=none / filler=0 / ip_ratio=1.40 / pb_ratio=1.20 / aq=2:0.80
Язык : Italian
Default : Да
Forced : Да
Аудио #1
Идентификатор : 2
Формат : AC-3
Формат/Информация : Audio Coding 3
Коммерческое название : Dolby Digital
Идентификатор кодека : A_AC3
Продолжительность : 1 ч. 59 м.
Вид битрейта : Постоянный
Битрейт : 384 Кбит/сек
Каналы : 6 каналов
Channel layout : L R C LFE Ls Rs
Частота : 48,0 КГц
Частота кадров : 31,250 кадров/сек (1536 SPF)
Битовая глубина : 16 бит
Метод сжатия : С потерями
Размер потока : 328 Мбайт (3%)
Заголовок : MVO (iTunes)
Язык : Russian
ServiceKind/String : Complete Main
Default : Да
Forced : Да
Аудио #2
Идентификатор : 3
Формат : DTS
Формат/Информация : Digital Theater Systems
Идентификатор кодека : A_DTS
Продолжительность : 1 ч. 59 м.
Вид битрейта : Постоянный
Битрейт : 1344 Кбит/сек
Каналы : 6 каналов
Channel layout : C L R Ls Rs LFE
Частота : 48,0 КГц
Частота кадров : 93,750 кадра/сек (512 SPF)
Битовая глубина : 24 бит
Метод сжатия : С потерями
Размер потока : 1,12 Гбайт (9%)
Язык : Italian
Default : Нет
Forced : Нет
Текст #1
Идентификатор : 4
Формат : UTF-8
Идентификатор кодека : S_TEXT/UTF8
Идентификатор кодека/Информация : UTF-8 Plain Text
Продолжительность : 1 ч. 51 м.
Битрейт : 71 бит/сек
ElementCount : 1290
Размер потока : 58,8 Кбайт (0%)
Язык : Italian
Default : Нет
Forced : Нет
Текст #2
Идентификатор : 5
Формат : UTF-8
Идентификатор кодека : S_TEXT/UTF8
Идентификатор кодека/Информация : UTF-8 Plain Text
Продолжительность : 1 ч. 51 м.
Битрейт : 84 бит/сек
ElementCount : 1716
Размер потока : 69,3 Кбайт (0%)
Язык : English
Default : Нет
Forced : Нет
Текст #3
Идентификатор : 6
Формат : UTF-8
Идентификатор кодека : S_TEXT/UTF8
Идентификатор кодека/Информация : UTF-8 Plain Text
Продолжительность : 1 ч. 51 м.
Битрейт : 88 бит/сек
ElementCount : 1555
Размер потока : 72,3 Кбайт (0%)
Язык : Spanish
Default : Нет
Forced : Нет
Меню
00:00:00.000 : it:00:00:00.000
00:09:55.250 : it:00:09:55.250
00:19:36.875 : it:00:19:36.875
00:25:14.750 : it:00:25:14.750
00:34:32.458 : it:00:34:32.458
00:47:36.500 : it:00:47:36.500
00:56:15.792 : it:00:56:15.792
01:07:36.208 : it:01:07:36.208
01:16:19.500 : it:01:16:19.500
01:23:36.458 : it:01:23:36.458
01:30:23.708 : it:01:30:23.708
01:42:33.292 : it:01:42:33.292
[Profile] [PM]
Display posts:    
Reply to topic

Current time is: 26-Jun 14:02

All times are UTC + 3



You cannot post new topics in this forum
You cannot reply to topics in this forum
You cannot edit your posts in this forum
You cannot delete your posts in this forum
You cannot vote in polls in this forum
You cannot attach files in this forum
You cannot download files in this forum