Бонус [1-16 серии из 16] (2018) WEBRip-AVC от Files-x

Reply to topic
 
Author Message

Серый1779 ®

Gender: Male

Longevity: 8 months 10 days

Posts: 498

Location: Украина

Post 16-Nov-2018 14:56

[Quote]

Бонус
Год выпуска: 2018
Жанр: Драма, музыка
Выпущено: Россия, ТНТ, АртДизайн
Режиссер: Валерия Гай Германика
В ролях: Александр Сударев, Артем Сучков, Дмитрий Смирнов (IV), Павел Комаров (II), Варвара Назарова, Антон Адасинский, Валерий Полиенко, Юлия Ауг, Светлана Лимпер, Лана Райдер, Григорий Чабан, Евгений Смирнов-Иваницкий, Александр Логинов (III), Денис Фартовый, Екатерина Васильева (V)
О фильме: Юный рэпер из провинции по прозвищу Бонус отправляется покорять столицу, где влюбляется в дочь известного бизнесмена. Но Москва слезам и рифмам не верит: вместе с первыми выступлениями Бонусу предстоит пережить несчастную любовь, конфликты с отцом девушки, взлеты и падения на фоне столичной рэп-тусовки.
Качество: WEBRip-AVC
Видео: MPEG-4 AVC, ~ 1600 Кбит/с, 1024x464, 25 кадр/с
Аудио: AC3, 2 ch, 192 Кбит/с
Продолжительность: 16 х ~ 00:36:00
Перевод: Не требуется
Субтитры: нет

Скриншоты


MediaInfo

Общее
Уникальный идентификатор : 199179628362572501762452294940436770368 (0x95D899DEE82D206C9D91EFFDD538AE40)
Полное имя : F:\Bonus.(2018).WEB-DLRip.(AVC).Files-x\01.Bonus.(2018).WEB-DLRip.(AVC).by.Серый1779.Files-x.mkv.mkv
Формат : Matroska
Версия формата : Version 2
Размер файла : 456 Мбайт
Продолжительность : 35 м. 34 с.
Общий поток : 1793 Кбит/сек
Дата кодирования : UTC 2018-09-20 06:32:49
Программа кодирования : mkvmerge v7.8.0 ('River Man') 32bit built on Apr 3 2015 12:11:22
Библиотека кодирования : libebml v1.3.1 + libmatroska v1.4.2
Видео
Идентификатор : 1
Формат : AVC
Формат/Информация : Advanced Video Codec
Профиль формата : High@L4.1
Настройки формата : CABAC / 9 Ref Frames
Параметр CABAC формата : Да
Параметр RefFrames формата : 9 кадров
Идентификатор кодека : V_MPEG4/ISO/AVC
Продолжительность : 35 м. 34 с.
Битрейт : 1600 Кбит/сек
Ширина : 1024 пикселя
Высота : 456 пикселей
Соотношение сторон : 2,25:1
Режим частоты кадров : Постоянный
Частота кадров : 25,000 кадров/сек
Цветовое пространство : YUV
Субдискретизация насыщенности : 4:2:0
Битовая глубина : 8 бит
Тип развёртки : Прогрессивная
Бит/(Пиксели*Кадры) : 0.137
Размер потока : 398 Мбайт (87%)
Библиотека кодирования : x264 core 146 r2538 121396c
Настройки программы : cabac=1 / ref=9 / deblock=1:-2:-1 / analyse=0x3:0x133 / me=umh / subme=9 / psy=1 / psy_rd=1.00:0.15 / mixed_ref=1 / me_range=32 / chroma_me=1 / trellis=2 / 8x8dct=1 / cqm=0 / deadzone=21,11 / fast_pskip=0 / chroma_qp_offset=-3 / threads=18 / lookahead_threads=3 / sliced_threads=0 / nr=0 / decimate=1 / interlaced=0 / bluray_compat=0 / constrained_intra=0 / bframes=9 / b_pyramid=2 / b_adapt=2 / b_bias=0 / direct=1 / weightb=1 / open_gop=0 / weightp=2 / keyint=250 / keyint_min=25 / scenecut=40 / intra_refresh=0 / rc=2pass / mbtree=0 / bitrate=1600 / ratetol=1.0 / qcomp=0.60 / qpmin=0 / qpmax=69 / qpstep=4 / cplxblur=20.0 / qblur=0.5 / ip_ratio=1.40 / pb_ratio=1.30 / aq=2:1.00
Default : Да
Forced : Нет
Цветовой диапазон : Limited
Основные цвета : BT.709
Характеристики трансфера : BT.709
Коэффициенты матрицы : BT.709
Аудио
Идентификатор : 2
Формат : AC-3
Формат/Информация : Audio Coding 3
Параметр Endianness формата : Big
Идентификатор кодека : A_AC3
Продолжительность : 35 м. 34 с.
Вид битрейта : Постоянный
Битрейт : 192 Кбит/сек
Каналы : 2 канала
Расположение каналов : Front: L R
Частота : 48,0 КГц
Частота кадров : 31,250 кадров/сек (1536 SPF)
Битовая глубина : 16 бит
Метод сжатия : С потерями
Размер потока : 48,8 Мбайт (11%)
ServiceKind/String : Complete Main
Default : Да
Forced : Нет

Внимание! Раздача ведётся путём добавления новых серий

Внимание! Раздача ведётся путём добавления новых серий; при каждом добавлении создfётся новый торрент. Чтобы начать докачку новой серии, пользователям необходимо сделать следующее: (1) остановить скачивание, (2) удалить старый торрент у себя из клиента (старые серии удалять не надо), (3) скачать новый торрент и запустить его у себя в клиенте вместо старого, при этом указать клиенту путь в старую папку куда и должно происходить скачивание новых серий.
Ваш клиент при этом должен произвести хеширование (проверку) старой папки (если не производит сам - помогите ему сделать это), и будет докачивать только те серии которых у вас ещё нет. Старые серии при этом не удаляются, а продолжают раздаваться!
Eсли вы уже удалили старые серии, то предотвратить повторную закачку старых серий можно, отжав галочку в соответсвующих местах при запуске нового торрента.
Релиз от:


Last edited by Серый1779 on 2018-11-22 16:58; edited 3 times in total
[Profile] [PM]
Display posts:    
Reply to topic

Current time is: 23-Jul 11:47

All times are UTC + 3



You cannot post new topics in this forum
You cannot reply to topics in this forum
You cannot edit your posts in this forum
You cannot delete your posts in this forum
You cannot vote in polls in this forum
You cannot attach files in this forum
You cannot download files in this forum