Бонус [1 сезон: 1-16 серии из 16] (2018) WEBRip 1080p

Ответить на тему
 
Автор Сообщение

White Smoke ®

Пол: Мужской

Стаж: 3 месяца 4 дня

Сообщений: 30

Создавать темы 16-Ноя-2018 18:43

[Цитировать]

Бонус
Год выпуска: 2018
Жанр: Драма, музыка
Выпущено: Россия, ТНТ, АртДизайн
Режиссер: Валерия Гай Германика
В ролях: Александр Сударев, Артем Сучков, Дмитрий Смирнов (IV), Павел Комаров (II), Варвара Назарова, Антон Адасинский, Валерий Полиенко, Юлия Ауг, Светлана Лимпер, Лана Райдер, Григорий Чабан, Евгений Смирнов-Иваницкий, Александр Логинов (III), Денис Фартовый, Екатерина Васильева (V)
О фильме: Юный рэпер из провинции по прозвищу Бонус отправляется покорять столицу, где влюбляется в дочь известного бизнесмена. Но Москва слезам и рифмам не верит: вместе с первыми выступлениями Бонусу предстоит пережить несчастную любовь, конфликты с отцом девушки, взлеты и падения на фоне столичной рэп-тусовки.
Качество: WEBRip 1080p
Видео: AVC, 1920x1080 (16:9), 4999 kbps, 25 fps, 0,096 bpp
Аудио: AC3 / 2.0 / 48 kHz / 192 kbps
Продолжительность: 16 х ~ 00:35:34
Перевод: Не требуется
Cубтитры: нет

Скриншоты

MediaInfo

General
Unique ID : 241895510819363744426428849976995512142 (0xB5FB617A244CD5E1B96B794ABD287F4E)
Complete name : E:\Bonus.2018.WEB-DL.(1080p).Getty\Bonus.e01.2018.WEB-DL.(1080p).Getty.mkv
Format : Matroska
Format version : Version 4 / Version 2
File size : 1.27 GiB
Duration : 35 min
Overall bit rate mode : Constant
Overall bit rate : 5 123 kb/s
Movie name : Bonus.e01.2018.WEB-DL.(1080p).Getty
Encoded date : UTC 2018-09-19 20:35:06
Writing application : mkvmerge v7.8.0 ('River Man') 32bit built on Mar 27 2015 16:18:02
Writing library : libebml v1.3.1 + libmatroska v1.4.2
Video
ID : 1
Format : AVC
Format/Info : Advanced Video Codec
Format profile : Baseline@L4
Format settings, CABAC : No
Format settings, ReFrames : 4 frames
Format settings, GOP : M=1, N=50
Codec ID : V_MPEG4/ISO/AVC
Duration : 35 min
Bit rate mode : Constant
Bit rate : 5 000 kb/s
Width : 1 920 pixels
Height : 1 080 pixels
Display aspect ratio : 16:9
Frame rate mode : Constant
Frame rate : 25.000 FPS
Standard : PAL
Color space : YUV
Chroma subsampling : 4:2:0
Bit depth : 8 bits
Scan type : Progressive
Bits/(Pixel*Frame) : 0.096
Stream size : 1.20 GiB (94%)
Default : Yes
Forced : No
Color range : Limited
Color primaries : BT.709
Transfer characteristics : BT.709
Matrix coefficients : BT.709
Audio
ID : 2
Format : AC-3
Format/Info : Audio Coding 3
Mode extension : CM (complete main)
Format settings, Endianness : Big
Codec ID : A_AC3
Duration : 35 min
Bit rate mode : Constant
Bit rate : 192 kb/s
Channel(s) : 2 channels
Channel positions : Front: L R
Sampling rate : 48.0 kHz
Frame rate : 31.250 FPS (1536 spf)
Compression mode : Lossy
Stream size : 48.8 MiB (4%)
Default : Yes
Forced : No
[Профиль] [ЛС]
Показать сообщения:    
Ответить на тему

Текущее время: 17-Фев 19:59

Часовой пояс: UTC + 3



Вы не можете начинать темы
Вы не можете отвечать на сообщения
Вы не можете редактировать свои сообщения
Вы не можете удалять свои сообщения
Вы не можете голосовать в опросах
Вы не можете прикреплять файлы к сообщениям
Вы не можете скачивать файлы