Холодная война / Zimna wojna (Cold War) (2018) BDRip 720p

Ответить на тему
 
Автор Сообщение

Monk ®

Пол: Мужской

Стаж: 3 месяца 3 дня

Сообщений: 3233

Откуда: Казань

Создавать темы 23-Ноя-2018 10:57

[Цитировать]

Холодная война / Zimna wojna (Cold War) Год выпуска: 2018
Жанр: Драма, музыка. мелодрама
Выпущено: Польша, Франция, Великобритания, Apocalypso Pictures, Arte France
Режиссер: Павел Павликовский
В ролях: Иоанна Кулиг, Томаш Кот, Борис Шиц, Агата Кулеша, Седрик Кан, Жанна Балибар, Адам Воронович, Адам Ференцы, Дражен Сивак, Славко Собин
О фильме: Это история невозможной любви в невозможное время. Они знакомятся на руинах послевоенной Польши. Разное происхождение и несхожие темпераменты — кажется, что они совершенно несовместимы. И все же им никуда друг от друга не деться. На протяжении лет они расстаются и встречаются вновь и вновь — в Берлине, Югославии и Париже… На пути их любви встают политика, превратности судьбы и их собственные недостатки, но ничто не в силах разорвать связь двух сердец.

Качество: BDRip 720p
Видео: MPEG-4 AVC, 5125 Кбит/с, 960x720
Аудио: Русский, польский (АС3, 6 ch, 640 Кбит/с)
Продолжительность: 01:28:00
Перевод: Авторский [Чадов]
Субтитры: Русские, польские

Скриншоты


MediaInfo

General
Unique ID : 240116816821112475181924521541765583883 (0xB4A4D1179EE2F4E6BF48D01988B6540B)
Complete name : D:\Zimna.wojna.2018.AVO.BDRip.720p.ExKinoRay.mkv
Format : Matroska
Format version : Version 2
File size : 3.93 GiB
Duration : 1 h 28 min
Overall bit rate : 6 399 kb/s
Movie name : Zimna wojna 2018 from ExKinoRay
Encoded date : UTC 2018-11-01 03:44:58
Writing application : mkvmerge v5.6.0 ('Kenya Kane') built on May 27 2012 16:44:04
Writing library : libebml v1.2.3 + libmatroska v1.3.0
Video
ID : 1
Format : AVC
Format/Info : Advanced Video Codec
Format profile : High@L4.1
Format settings, CABAC : Yes
Format settings, ReFrames : 12 frames
Codec ID : V_MPEG4/ISO/AVC
Duration : 1 h 28 min
Bit rate : 5 125 kb/s
Width : 960 pixels
Height : 720 pixels
Display aspect ratio : 4:3
Frame rate mode : Constant
Frame rate : 24.000 FPS
Color space : YUV
Chroma subsampling : 4:2:0
Bit depth : 8 bits
Scan type : Progressive
Bits/(Pixel*Frame) : 0.309
Stream size : 3.07 GiB (78%)
Title : Enigma
Writing library : x264 core 152 r2851 ba24899
Encoding settings : cabac=1 / ref=12 / deblock=1:-2:-2 / analyse=0x3:0x113 / me=umh / subme=10 / psy=1 / psy_rd=1.02:0.05 / mixed_ref=1 / me_range=32 / chroma_me=1 / trellis=2 / 8x8dct=1 / cqm=0 / deadzone=21,11 / fast_pskip=0 / chroma_qp_offset=-3 / threads=12 / lookahead_threads=3 / sliced_threads=0 / nr=0 / decimate=0 / interlaced=0 / bluray_compat=0 / constrained_intra=0 / bframes=14 / b_pyramid=2 / b_adapt=2 / b_bias=0 / direct=3 / weightb=1 / open_gop=0 / weightp=2 / keyint=240 / keyint_min=24 / scenecut=40 / intra_refresh=0 / rc_lookahead=40 / rc=2pass / mbtree=0 / bitrate=5125 / ratetol=1.0 / qcomp=0.65 / qpmin=0 / qpmax=51 / qpstep=4 / cplxblur=20.0 / qblur=0.5 / vbv_maxrate=50000 / vbv_bufsize=62500 / nal_hrd=none / filler=0 / ip_ratio=1.40 / pb_ratio=1.30 / aq=1:1.00
Language : English
Default : Yes
Forced : No
Color range : Limited
Color primaries : BT.709
Transfer characteristics : BT.709
Matrix coefficients : BT.709
Audio #1
ID : 2
Format : AC-3
Format/Info : Audio Coding 3
Mode extension : CM (complete main)
Format settings, Endianness : Big
Codec ID : A_AC3
Duration : 1 h 28 min
Bit rate mode : Constant
Bit rate : 640 kb/s
Channel(s) : 6 channels
Channel positions : Front: L C R, Side: L R, LFE
Sampling rate : 48.0 kHz
Frame rate : 31.250 FPS (1536 spf)
Compression mode : Lossy
Stream size : 403 MiB (10%)
Title : VO (Chadov)
Language : Russian
Default : Yes
Forced : No
Audio #2
ID : 3
Format : AC-3
Format/Info : Audio Coding 3
Mode extension : CM (complete main)
Format settings, Endianness : Big
Codec ID : A_AC3
Duration : 1 h 28 min
Bit rate mode : Constant
Bit rate : 640 kb/s
Channel(s) : 6 channels
Channel positions : Front: L C R, Side: L R, LFE
Sampling rate : 48.0 kHz
Frame rate : 31.250 FPS (1536 spf)
Compression mode : Lossy
Stream size : 403 MiB (10%)
Title : Original
Language : Polish
Default : No
Forced : No
Text #1
ID : 4
Format : UTF-8
Codec ID : S_TEXT/UTF8
Codec ID/Info : UTF-8 Plain Text
Title : Forced (Songs)
Language : Russian
Default : Yes
Forced : No
Text #2
ID : 5
Format : UTF-8
Codec ID : S_TEXT/UTF8
Codec ID/Info : UTF-8 Plain Text
Title : Full
Language : Russian
Default : No
Forced : No
Text #3
ID : 6
Format : UTF-8
Codec ID : S_TEXT/UTF8
Codec ID/Info : UTF-8 Plain Text
Title : Forced
Language : Polish
Default : No
Forced : No
Text #4
ID : 7
Format : UTF-8
Codec ID : S_TEXT/UTF8
Codec ID/Info : UTF-8 Plain Text
Title : Full
Language : Polish
Default : No
Forced : No
Menu
00:00:00.000 : :Chapter 01
00:07:29.708 : :Chapter 02
00:14:03.000 : :Chapter 03
00:22:11.666 : :Chapter 04
00:30:20.958 : :Chapter 05
00:40:40.416 : :Chapter 06
00:47:59.666 : :Chapter 07
00:52:42.958 : :Chapter 08
00:58:52.500 : :Chapter 09
01:07:26.541 : :Chapter 10
01:13:57.416 : :Chapter 11
01:21:08.500 : :Chapter 12
[Профиль] [ЛС]
Показать сообщения:    
Ответить на тему

Текущее время: 17-Фев 19:56

Часовой пояс: UTC + 3



Вы не можете начинать темы
Вы не можете отвечать на сообщения
Вы не можете редактировать свои сообщения
Вы не можете удалять свои сообщения
Вы не можете голосовать в опросах
Вы не можете прикреплять файлы к сообщениям
Вы не можете скачивать файлы