Холодная война / Zimna wojna (Cold War) (2018) BDRip AVC | iTunes

Reply to topic
 
Author Message

Monk ®

Gender: Male

Longevity: 8 months 8 days

Posts: 7519

Location: Казань

Post 23-Nov-2018 11:02

[Quote]

Холодная война / Zimna wojna (Cold War) Год выпуска: 2018
Жанр: Драма, музыка. мелодрама
Выпущено: Польша, Франция, Великобритания, Apocalypso Pictures, Arte France
Режиссер: Павел Павликовский
В ролях: Иоанна Кулиг, Томаш Кот, Борис Шиц, Агата Кулеша, Седрик Кан, Жанна Балибар, Адам Воронович, Адам Ференцы, Дражен Сивак, Славко Собин
О фильме: Это история невозможной любви в невозможное время. Они знакомятся на руинах послевоенной Польши. Разное происхождение и несхожие темпераменты — кажется, что они совершенно несовместимы. И все же им никуда друг от друга не деться. На протяжении лет они расстаются и встречаются вновь и вновь — в Берлине, Югославии и Париже… На пути их любви встают политика, превратности судьбы и их собственные недостатки, но ничто не в силах разорвать связь двух сердец.

Качество: BDRip AVC
Видео: MPEG-4 AVC, 1868 Кбит/с, 768x576, 24.000 кадр/с
Аудио: Русский (AC3, 6 ch, 384 Кбит/с), (AC3, 6 ch, 448 Кбит/с)
Продолжительность: 01:28:00
Перевод: Дублированный [iTunes], авторский [Чадов]
Субтитры: Русские

Скриншоты



MediaInfo

Общее
Уникальный идентификатор : 316579424733977914753742146356713181671 (0xEE2AFAB91EB0F8CDFEE305B1D8A151E7)
Полное имя : F:\OlLanDGroup\Zimna.wojna.2018.BDRip(AVC).OlLanDGroup.mkv
Формат : Matroska
Версия формата : Version 4 / Version 2
Размер файла : 1,65 Гбайт
Продолжительность : 1 ч. 28 м.
Общий поток : 2689 Кбит/сек
Название фильма : Zimna.wojna.2018 #TorpedoUK#
Дата кодирования : UTC 2019-03-07 14:24:53
Программа кодирования : mkvmerge v29.0.0 ('Like It Or Not') 64-bit
Библиотека кодирования : libebml v1.3.6 + libmatroska v1.4.9
Видео
Идентификатор : 1
Формат : AVC
Формат/Информация : Advanced Video Codec
Профиль формата : High@L4.1
Параметр CABAC формата : Да
Параметр ReFrames формата : 10 кадров
Идентификатор кодека : V_MPEG4/ISO/AVC
Продолжительность : 1 ч. 28 м.
Битрейт : 1868 Кбит/сек
Ширина : 768 пикселей
Высота : 576 пикселей
Соотношение сторон : 4:3
Режим частоты кадров : Постоянный
Частота кадров : 24,000 кадра/сек
Цветовое пространство : YUV
Субдискретизация насыщенности : 4:2:0
Битовая глубина : 8 бит
Тип развёртки : Прогрессивная
Бит/(Пиксели*Кадры) : 0.176
Размер потока : 1,14 Гбайт (69%)
Библиотека кодирования : x264 core 146 r2538 121396c
Настройки программы : cabac=1 / ref=10 / deblock=1:-2:-3 / analyse=0x3:0x113 / me=umh / subme=10 / psy=1 / psy_rd=0.96:0.06 / mixed_ref=1 / me_range=48 / chroma_me=1 / trellis=2 / 8x8dct=1 / cqm=0 / deadzone=21,11 / fast_pskip=1 / chroma_qp_offset=-3 / threads=6 / lookahead_threads=1 / sliced_threads=0 / nr=0 / decimate=1 / interlaced=0 / bluray_compat=0 / constrained_intra=0 / bframes=11 / b_pyramid=2 / b_adapt=2 / b_bias=0 / direct=3 / weightb=1 / open_gop=0 / weightp=2 / keyint=240 / keyint_min=23 / scenecut=40 / intra_refresh=0 / rc_lookahead=40 / rc=2pass / mbtree=0 / bitrate=1868 / ratetol=1.0 / qcomp=0.60 / qpmin=0 / qpmax=69 / qpstep=4 / cplxblur=20.0 / qblur=0.5 / vbv_maxrate=50000 / vbv_bufsize=62500 / nal_hrd=none / filler=0 / ip_ratio=1.40 / pb_ratio=1.30 / aq=1:1.00
Язык : English
Default : Да
Forced : Нет
Аудио #1
Идентификатор : 2
Формат : AC-3
Формат/Информация : Audio Coding 3
Расширение режима : CM (complete main)
Параметр Endianness формата : Big
Идентификатор кодека : A_AC3
Продолжительность : 1 ч. 28 м.
Вид битрейта : Постоянный
Битрейт : 384 Кбит/сек
Каналы : 6 каналов
Расположение каналов : Front: L C R, Side: L R, LFE
Частота : 48,0 КГц
Частота кадров : 31,250 кадров/сек (1536 spf)
Битовая глубина : 16 бит
Метод сжатия : С потерями
Размер потока : 242 Мбайт (14%)
Заголовок : DUB [iTunes]
Язык : Russian
Default : Да
Forced : Нет
Аудио #2
Идентификатор : 3
Формат : AC-3
Формат/Информация : Audio Coding 3
Расширение режима : CM (complete main)
Параметр Endianness формата : Big
Идентификатор кодека : A_AC3
Продолжительность : 1 ч. 28 м.
Вид битрейта : Постоянный
Битрейт : 448 Кбит/сек
Каналы : 6 каналов
Расположение каналов : Front: L C R, Side: L R, LFE
Частота : 48,0 КГц
Частота кадров : 31,250 кадров/сек (1536 spf)
Битовая глубина : 16 бит
Метод сжатия : С потерями
Размер потока : 282 Мбайт (17%)
Заголовок : AVO [Serbin]
Язык : Russian
Default : Нет
Forced : Нет
Текст #1
Идентификатор : 4
Формат : UTF-8
Идентификатор кодека : S_TEXT/UTF8
Идентификатор кодека/Информация : UTF-8 Plain Text
Продолжительность : 1 ч. 13 м.
Битрейт : 10 бит/сек
Count of elements : 112
Размер потока : 5,43 Кбайт (0%)
Заголовок : Forced
Язык : Russian
Default : Да
Forced : Нет
Текст #2
Идентификатор : 5
Формат : UTF-8
Идентификатор кодека : S_TEXT/UTF8
Идентификатор кодека/Информация : UTF-8 Plain Text
Продолжительность : 1 ч. 20 м.
Битрейт : 60 бит/сек
Count of elements : 634
Размер потока : 35,8 Кбайт (0%)
Заголовок : Full
Язык : Russian
Default : Нет
Forced : Нет
Меню
00:00:00.000 : :Глава 01
00:07:29.708 : :Глава 02
00:14:03.000 : :Глава 03
00:22:11.666 : :Глава 04
00:30:20.958 : :Глава 05
00:40:40.416 : :Глава 06
00:47:59.666 : :Глава 07
00:52:42.958 : :Глава 08
00:58:52.500 : :Глава 09
01:07:26.541 : :Глава 10
01:13:57.416 : :Глава 11
01:21:08.500 : :Глава 12
[Profile] [PM]
Display posts:    
Reply to topic

Current time is: 22-Jul 18:14

All times are UTC + 3



You cannot post new topics in this forum
You cannot reply to topics in this forum
You cannot edit your posts in this forum
You cannot delete your posts in this forum
You cannot vote in polls in this forum
You cannot attach files in this forum
You cannot download files in this forum