Операция «Сатана» [1-8 серии из 8] (2018) HDTV 1080i от GeneralFilm

Ответить на тему
 
Автор Сообщение

olegka7373 ®

Пол: Мужской

Стаж: 3 месяца 2 дня

Сообщений: 60

Откуда: Россия, Новокузнецк

Создавать темы 24-Ноя-2018 01:12

[Цитировать]

Операция «Сатана»
Год выпуска: 2018
Жанр: Детектив, криминал
Выпущено: Россия, Русский проект
Режиссер: Юрий Мороз
В ролях: Андрей Смоляков, Марина Александрова, Даниэла Стоянович, Владимир Юматов, Сергей Угрюмов, Луиза Мосендз, Яна Сексте, Владимир Ильин, Виктория Исакова, Александр Домогаров, Сергей Колтаков, Игорь Гордин, Александра Ребенок, Александр Голубев, Софья Евстигнеева, Лариса Удовиченко, Юрий Чурсин, Алексей Бардуков, Филипп Гуревич, Дмитрий Куличков, Юрий Тарасов
О фильме: 1975 год - холодная война между СССР и США, гонка вооружений. Напряженно работают физики-ядерщики. В Советском Союзе становится очевидной утечка секретной информации о разработке ракеты «Сатана». Казалось бы, как может быть связан майор милиции с разведкой спецслужб? Однако именно он, Иван Петрович, уволенный из МУРа, трудящийся обычным участковым, оказывает неоценимую помощь КГБ в поимке американского шпиона.

Качество: HDTV (1080i)
Видео: MPEG-TS AVC, ~ 5100 Кбит/с, 1920x1080
Аудио: Русский (AC3, 2 ch, 384 Кбит/с), (MP2, 2 ch, 192 Кбит/с)
Продолжительность: 8 х ~ 00:50:00
Перевод: Не требуется
Субтитры: нет

Скриншоты


MediaInfo

Общее
Идентификатор : 1 (0x1)
Полное имя : D:\Запись\Operacija Satana.HDTV(1080i).GeneralFilm\01.Operacija Satana.HDTV(1080i).GeneralFilm.ts
Формат : MPEG-TS
Размер файла : 2,04 Гбайт
Продолжительность : 48 м. 45 с.
Режим общего битрейта : Переменный
Общий поток : 5994 Кбит/сек
Видео
Идентификатор : 1904 (0x770)
Идентификатор меню : 80 (0x50)
Формат : AVC
Формат/Информация : Advanced Video Codec
Профиль формата : High@L4
Параметр CABAC формата : Да
Параметр ReFrames формата : 3 кадра
Параметр GOP формата : M=4, N=32
Идентификатор кодека : 27
Продолжительность : 48 м. 45 с.
Битрейт : 5116 Кбит/сек
Ширина : 1920 пикселей
Высота : 1080 пикселей
Соотношение сторон : 16:9
Частота кадров : 25,000 кадров/сек
Стандарт вещания : Component
Цветовое пространство : YUV
Субдискретизация насыщенности : 4:2:0
Битовая глубина : 8 бит
Тип развёртки : Чересстрочная
Метод сохранения типа развёртки : Раздельные поля
Порядок развёртки : Верхнее поле первое
Бит/(Пиксели*Кадры) : 0.099
Размер потока : 1,74 Гбайт (85%)
Цветовой диапазон : Limited
Основные цвета : BT.709
Характеристики трансфера : BT.709
Коэффициенты матрицы : BT.709
Аудио #1
Идентификатор : 2904 (0xB58)
Идентификатор меню : 80 (0x50)
Формат : AC-3
Формат/Информация : Audio Coding 3
Расширение режима : CM (complete main)
Параметр Endianness формата : Big
Идентификатор кодека : 6
Продолжительность : 48 м. 45 с.
Вид битрейта : Постоянный
Битрейт : 384 Кбит/сек
Каналы : 6 каналов
Расположение каналов : Front: L C R, Side: L R, LFE
Частота : 48,0 КГц
Частота кадров : 31,250 кадров/сек (1536 spf)
Битовая глубина : 16 бит
Метод сжатия : С потерями
Задержка видео : -80 мс.
Размер потока : 134 Мбайт (6%)
Язык : Russian
Аудио #2
Идентификатор : 2905 (0xB59)
Идентификатор меню : 80 (0x50)
Формат : MPEG Audio
Версия формата : Version 1
Профиль формата : Layer 2
Идентификатор кодека : 3
Продолжительность : 48 м. 45 с.
Вид битрейта : Постоянный
Битрейт : 192 Кбит/сек
Каналы : 2 канала
Частота : 48,0 КГц
Метод сжатия : С потерями
Задержка видео : -80 мс.
Размер потока : 67,0 Мбайт (3%)
Язык : Russian

Внимание! Раздача ведётся путём добавления новых серий

Раздача ведётся путём добавления новых серий, при каждом добавлении создаётся новый торрент. Чтобы начать докачку новой серии, пользователям необходимо сделать следующее:
- Остановить скачивание.
- Удалить старый торрент у себя из клиента (старые серии удалять не надо).
- Скачать новый торрент и запустить его у себя в клиенте вместо старого, при этом указать клиенту путь в старую папку куда и должно происходить скачивание новых серий.
Ваш клиент при этом должен произвести хеширование (проверку) старой папки (если не производит сам - помогите ему сделать это), и будет докачивать только те серии которых у вас ещё нет. Старые серии при этом не удаляются, а продолжают раздаваться!
Если вы уже удалили старые серии, то предотвратить повторную закачку старых серий можно, отжав галочку в соответствующих местах при запуске нового торрента. По возможности, желательно не удалять старые серии как можно дольше, чтобы релизер не столько продолжал раздавать старые серии, а смог сконцентрироваться на новых.
Релиз:
[Профиль] [ЛС]
Показать сообщения:    
Ответить на тему

Текущее время: 16-Фев 11:18

Часовой пояс: UTC + 3



Вы не можете начинать темы
Вы не можете отвечать на сообщения
Вы не можете редактировать свои сообщения
Вы не можете удалять свои сообщения
Вы не можете голосовать в опросах
Вы не можете прикреплять файлы к сообщениям
Вы не можете скачивать файлы