Операция «Сатана» [1-8 серии из 8] (2018) HDTVRip от GeneralFilm

Ответить на тему
 
Автор Сообщение

olegka7373 ®

Пол: Мужской

Стаж: 4 месяца 7 дней

Сообщений: 72

Откуда: Россия, Новокузнецк

Создавать темы 24-Ноя-2018 01:18

[Цитировать]

Операция «Сатана»
Год выпуска: 2018
Жанр: Детектив, криминал
Выпущено: Россия, Русский проект
Режиссер: Юрий Мороз
В ролях: Андрей Смоляков, Марина Александрова, Даниэла Стоянович, Владимир Юматов, Сергей Угрюмов, Луиза Мосендз, Яна Сексте, Владимир Ильин, Виктория Исакова, Александр Домогаров, Сергей Колтаков, Игорь Гордин, Александра Ребенок, Александр Голубев, Софья Евстигнеева, Лариса Удовиченко, Юрий Чурсин, Алексей Бардуков, Филипп Гуревич, Дмитрий Куличков, Юрий Тарасов
О фильме: 1975 год - холодная война между СССР и США, гонка вооружений. Напряженно работают физики-ядерщики. В Советском Союзе становится очевидной утечка секретной информации о разработке ракеты «Сатана». Казалось бы, как может быть связан майор милиции с разведкой спецслужб? Однако именно он, Иван Петрович, уволенный из МУРа, трудящийся обычным участковым, оказывает неоценимую помощь КГБ в поимке американского шпиона.

Качество: HDTVRip
Видео: XviD, ~ 1800 Кбит/с, 720x400
Аудио: Русский (AC3, 2 ch, 192 Кбит/с)
Продолжительность: 8 х ~ 00:50:00
Перевод: Не требуется
Субтитры: нет

Скриншоты


MediaInfo

Общее
Полное имя : D:\Operacija Satana.HDTVRip.GeneralFilm\01.Operacija Satana.HDTVRip.GeneralFilm.avi
Формат : AVI
Формат/Информация : Audio Video Interleave
Размер файла : 687 Мбайт
Продолжительность : 48 м. 45 с.
Общий поток : 1970 Кбит/сек
Видео
Идентификатор : 0
Формат : MPEG-4 Visual
Профиль формата : Advanced Simple@L5
Параметр BVOP формата : 1
Параметр QPel формата : Нет
Параметр GMC формата : Без точки перехода
Параметр матрицы формата : Выборочная
Идентификатор кодека : XVID
Идентификатор кодека/Подсказка : XviD
Продолжительность : 48 м. 45 с.
Битрейт : 1766 Кбит/сек
Ширина : 720 пикселей
Высота : 400 пикселей
Соотношение сторон : 16:9
Частота кадров : 25,000 кадров/сек
Цветовое пространство : YUV
Субдискретизация насыщенности : 4:2:0
Битовая глубина : 8 бит
Тип развёртки : Прогрессивная
Метод сжатия : С потерями
Бит/(Пиксели*Кадры) : 0.245
Размер потока : 616 Мбайт (90%)
Библиотека кодирования : XviD 1.2.1 (UTC 2008-12-04)
Аудио
Идентификатор : 1
Формат : AC-3
Формат/Информация : Audio Coding 3
Расширение режима : CM (complete main)
Параметр Endianness формата : Big
Идентификатор кодека : 2000
Продолжительность : 48 м. 45 с.
Вид битрейта : Постоянный
Битрейт : 192 Кбит/сек
Каналы : 2 канала
Расположение каналов : Front: L R
Частота : 48,0 КГц
Частота кадров : 31,250 кадров/сек (1536 spf)
Битовая глубина : 16 бит
Метод сжатия : С потерями
Размер потока : 67,0 Мбайт (10%)
Выравнивание : Соединение по промежуткам
Продолжительность промежутка : 32 мс. (0,80 видеокадр)

Внимание! Раздача ведётся путём добавления новых серий

Раздача ведётся путём добавления новых серий, при каждом добавлении создаётся новый торрент. Чтобы начать докачку новой серии, пользователям необходимо сделать следующее:
- Остановить скачивание.
- Удалить старый торрент у себя из клиента (старые серии удалять не надо).
- Скачать новый торрент и запустить его у себя в клиенте вместо старого, при этом указать клиенту путь в старую папку куда и должно происходить скачивание новых серий.
Ваш клиент при этом должен произвести хеширование (проверку) старой папки (если не производит сам - помогите ему сделать это), и будет докачивать только те серии которых у вас ещё нет. Старые серии при этом не удаляются, а продолжают раздаваться!
Если вы уже удалили старые серии, то предотвратить повторную закачку старых серий можно, отжав галочку в соответствующих местах при запуске нового торрента. По возможности, желательно не удалять старые серии как можно дольше, чтобы релизер не столько продолжал раздавать старые серии, а смог сконцентрироваться на новых.
Релиз:
[Профиль] [ЛС]
Показать сообщения:    
Ответить на тему

Текущее время: 20-Мар 13:20

Часовой пояс: UTC + 3



Вы не можете начинать темы
Вы не можете отвечать на сообщения
Вы не можете редактировать свои сообщения
Вы не можете удалять свои сообщения
Вы не можете голосовать в опросах
Вы не можете прикреплять файлы к сообщениям
Вы не можете скачивать файлы