Отдай мою мечту [1-16 серии из 16] (2018) WEBRip 720p от Files-x

Reply to topic
 
Author Message

Nicodem ®

Gender: Male

Longevity: 11 months 26 days

Posts: 280

Post 24-Nov-2018 09:17

[Quote]

Отдай мою мечту
Год выпуска: 2018
Жанр: Мелодрама
Выпущено: Россия, Украина, Кинокомпания "Упс"
Режиссер: Дмитрий Матов
В ролях: Анастасия Иванова (II), Олег Гаас, Ирина Антоненко, Иван Соловьёв (III), Светлана Зельбет, Наталья Доля, Елена Стефанская, Лариса Руснак, Светлана Шекера, Оксана Жданова, Сергей Деньга, Фёдор Гуринец, Виктория Билан, Константин Корецкий, Игорь Рубашкин, Андрей Романий, Вера Кобзарь, Александра Сизоненко
О фильме: Адаптация корейского телесериала "Отражение желаний (Cinderella Man)" 2009 года. Жизнь молодой амбициозной Вики Григоренко, мечтающей стать известным дизайнером одежды, резко меняется, когда она знакомится с семьей Зборовских и начинает сотрудничать с их Модным домом. Неожиданно девушка становится свидетельницей странных событий, которые, на первый взгляд, не имеют объяснения. Вместе с другими героями истории ей предстоит раскрыть немало тайн, честно ответить себе на множество сложных вопросов, пережить потери и потрясения, чтобы в конце концов узнать, как это прекрасно и ответственно – не только мечтать, но и быть чьей-то мечтой.
Качество: WEBRip 720p
Видео: MPEG-4 AVC, ~ 3000 Кбит/с, 1280х720, 25 кадр/с
Аудио: AC3, 2 ch, 192 Кбит/с
Продолжительность: 16 х 00:46:00
Перевод: Не требуется
Cубтитры: нет

Скриншоты





MediaInfo

General
Unique ID : 214673866664943563584638275302272682193 (0xA180AECC8DBB01555CAB2C6439DE48D1)
Complete name : C:\Users\DOM\Downloads\Отдай мою мечту.2018.WEBRip (720p).by.Nicodem.Files-x\01.Отдай мою мечту.2018.WEBRip (720p).by.Nicodem.Files-x.mkv
Format : Matroska
File size : 1.02 GiB
Duration : 46mn 4s
Overall bit rate : 3 185 Kbps
Writing application : Lavf56.36.100
Writing library : Lavf56.36.100
Video
ID : 1
Format : AVC
Format/Info : Advanced Video Codec
Format profile : High@L3.1
Format settings, CABAC : No
Format settings, ReFrames : 2 frames
Format settings, GOP : M=3, N=50
Codec ID : V_MPEG4/ISO/AVC
Duration : 46mn 4s
Bit rate mode : Constant
Bit rate : 3 000 Kbps
Width : 1 280 pixels
Height : 720 pixels
Display aspect ratio : 16:9
Frame rate : 25.000 fps
Standard : PAL
Color space : YUV
Chroma subsampling : 4:2:0
Bit depth : 8 bits
Scan type : Progressive
Bits/(Pixel*Frame) : 0.130
Stream size : 965 MiB (92%)
Language : English
Color primaries : BT.709-5, BT.1361, IEC 61966-2-4, SMPTE RP177
Transfer characteristics : BT.709-5, BT.1361
Matrix coefficients : BT.709-5, BT.1361, IEC 61966-2-4 709, SMPTE RP177
Audio
ID : 2
Format : AC-3
Format/Info : Audio Coding 3
Mode extension : CM (complete main)
Codec ID : A_AC3
Duration : 46mn 4s
Bit rate mode : Constant
Bit rate : 192 Kbps
Channel(s) : 2 channels
Channel positions : Front: L R
Sampling rate : 48.0 KHz
Bit depth : 16 bits
Compression mode : Lossy
Delay relative to video : 1mn 5s
Stream size : 63.3 MiB (6%)
Language : English / un
Релиз от:
[Profile] [PM]
Display posts:    
Reply to topic

Current time is: 14-Nov 10:26

All times are UTC + 3



You cannot post new topics in this forum
You cannot reply to topics in this forum
You cannot edit your posts in this forum
You cannot delete your posts in this forum
You cannot vote in polls in this forum
You cannot attach files in this forum
You cannot download files in this forum