Отдай мою мечту [1-16 серии из 16] (2018) WEB-DL 720p от Files-x

Reply to topic
 
Author Message

Nicodem ®

Gender: Male

Longevity: 2 years

Posts: 668

Post 24-Nov-2018 09:17

[Quote]

Отдай мою мечту
Год выпуска: 2018
Жанр: Мелодрама
Выпущено: Россия, Украина, Кинокомпания "Упс"
Режиссер: Дмитрий Матов
В ролях: Анастасия Иванова (II), Олег Гаас, Ирина Антоненко, Иван Соловьёв (III), Светлана Зельбет, Наталья Доля, Елена Стефанская, Лариса Руснак, Светлана Шекера, Оксана Жданова, Сергей Деньга, Фёдор Гуринец, Виктория Билан, Константин Корецкий, Игорь Рубашкин, Андрей Романий, Вера Кобзарь, Павел Алдошин, Александра Сизоненко, Екатерина Тышкевич, Евгений Ефремов, Андрей Мостренко, Константин Шафоренко, Константин Данилюк, Анна Сырбу, Анна Васильева (II)
О фильме: Адаптация корейского телесериала "Отражение желаний (Cinderella Man)" 2009 года. Жизнь молодой амбициозной Вики Григоренко, мечтающей стать известным дизайнером одежды, резко меняется, когда она знакомится с семьей Зборовских и начинает сотрудничать с их Модным домом. Неожиданно девушка становится свидетельницей странных событий, которые, на первый взгляд, не имеют объяснения. Вместе с другими героями истории ей предстоит раскрыть немало тайн, честно ответить себе на множество сложных вопросов, пережить потери и потрясения, чтобы в конце концов узнать, как это прекрасно и ответственно – не только мечтать, но и быть чьей-то мечтой.

Качество: WEB-DL 720p
Видео: MPEG-4 AVC, ~ 3500 Кбит/с, 1280х720, 25 кадр/с
Аудио: AC3, 2 ch, 192 Кбит/с
Продолжительность: 16 х 00:46:00
Перевод: Не требуется
Cубтитры: нет

Скриншоты


MediaInfo

General
Unique ID : 205429641634684034346835702454656656843 (0x9A8C4F50F256E5A3235DCEE9362365CB)
Complete name : C:01.Отдай мою мечту.(2018).WEB-DL (720p).by.Nicodem.Files-x.mkv
Format : Matroska
File size : 1.19 GiB
Duration : 46mn 4s
Overall bit rate : 3 707 Kbps
Writing application : Lavf56.36.100
Writing library : Lavf56.36.100
Video
ID : 1
Format : AVC
Format/Info : Advanced Video Codec
Format profile : High@L4.1
Format settings, CABAC : Yes
Format settings, ReFrames : 5 frames
Codec ID : V_MPEG4/ISO/AVC
Duration : 46mn 4s
Bit rate : 3 500 Kbps
Width : 1 280 pixels
Height : 720 pixels
Display aspect ratio : 16:9
Frame rate mode : Variable
Frame rate : 25.000 fps
Color space : YUV
Chroma subsampling : 4:2:0
Bit depth : 8 bits
Scan type : Progressive
Bits/(Pixel*Frame) : 0.152
Stream size : 1.11 GiB (93%)
Writing library : x264 core 148
Encoding settings : cabac=1 / ref=5 / deblock=1:0:0 / analyse=0x3:0x113 / me=hex / subme=8 / psy=1 / psy_rd=1.00:0.00 / mixed_ref=1 / me_range=16 / chroma_me=1 / trellis=2 / 8x8dct=1 / cqm=0 / deadzone=21,11 / fast_pskip=1 / chroma_qp_offset=-2 / threads=22 / lookahead_threads=3 / sliced_threads=0 / nr=0 / decimate=1 / interlaced=0 / bluray_compat=0 / constrained_intra=0 / bframes=3 / b_pyramid=2 / b_adapt=1 / b_bias=0 / direct=3 / weightb=1 / open_gop=0 / weightp=2 / keyint=250 / keyint_min=25 / scenecut=0 / intra_refresh=0 / rc_lookahead=50 / rc=abr / mbtree=1 / bitrate=3500 / ratetol=1.0 / qcomp=0.60 / qpmin=0 / qpmax=69 / qpstep=4 / ip_ratio=1.40 / aq=1:1.00
Language : English
Audio
ID : 2
Format : AC-3
Format/Info : Audio Coding 3
Mode extension : CM (complete main)
Codec ID : A_AC3
Duration : 46mn 4s
Bit rate mode : Constant
Bit rate : 192 Kbps
Channel(s) : 2 channels
Channel positions : Front: L R
Sampling rate : 44.1 KHz
Bit depth : 16 bits
Compression mode : Lossy
Delay relative to video : 1mn 5s
Stream size : 63.3 MiB (5%)
Language : English / un

Раздача ведётся путём добавления новых серий

Внимание! Раздача ведётся путём добавления новых серий; при каждом добавлении создаётся новый торрент.
Чтобы начать докачку новой серии, пользователям необходимо сделать следующее:
1. Остановить скачивание;
2. Удалить старый торрент у себя из клиента (старые серии удалять не надо);
3. Скачать новый торрент и запустить его у себя в клиенте вместо старого, при этом указать клиенту путь в старую папку куда и должно происходить скачивание новых серий. Ваш клиент при этом должен произвести хеширование (проверку) старой папки и будет докачивать только те серии, которых у вас ещё нет. Старые серии при этом не удаляются, а продолжают раздаваться! Eсли вы уже удалили старые серии, то предотвратить повторную закачку старых серий можно, отжав галочку в соответствующих местах при запуске нового торрента.
Релиз от:

Release was prepared by RG Files-x

[Profile] [PM]

Nicodem ®

Gender: Male

Longevity: 2 years

Posts: 668

Post 11-Jul-2020 02:12 (after 1 year 7 months)

[Quote]

Замена на релиз без ЛОГО канала
[Profile] [PM]
Display posts:    
Reply to topic

Current time is: 26-Nov 04:27

All times are UTC + 3



You cannot post new topics in this forum
You cannot reply to topics in this forum
You cannot edit your posts in this forum
You cannot delete your posts in this forum
You cannot vote in polls in this forum
You cannot attach files in this forum
You cannot download files in this forum