Отдай мою мечту [1-16 серии из 16] (2018) WEBRip от Files-x

Reply to topic
 
Author Message

Nicodem ®

Gender: Male

Longevity: 9 months 7 days

Posts: 204

Post 24-Nov-2018 09:23

[Quote]

Отдай мою мечту
Год выпуска: 2018
Жанр: Мелодрама
Выпущено: Россия, Украина, Кинокомпания "Упс"
Режиссер: Дмитрий Матов
В ролях: Анастасия Иванова (II), Олег Гаас, Ирина Антоненко, Иван Соловьёв (III), Светлана Зельбет, Наталья Доля, Елена Стефанская, Лариса Руснак, Светлана Шекера, Оксана Жданова, Сергей Деньга, Фёдор Гуринец, Виктория Билан, Константин Корецкий, Игорь Рубашкин, Андрей Романий, Вера Кобзарь, Александра Сизоненко
О фильме: Это захватывающая история, рассказывающая о том, как Вика Григоренко шла к своей цели, стать успешной модельером, невзирая на многочисленные препятствия. А когда она добилась всего, чего хотела, то поняла - это было только начало сложного пути к ее заветной мечте. Вика оставляет семью - папу, маму, любимое дело - ателье и точку на рынке, где они все работают отправляется учиться. Папа и мама рады за дочурку - они всегда готовы ее поддержать во всех начинаниях. Но случилось так, что папа Вики - Леонид - неожиданно умирает. После его смерти выясняется, что у Леонида были огромные долги... Мама Вики от таких событий заболела. Бизнес оказывается под нешуточной угрозой. Тетя Вики не против заполучить часть бизнеса или весь, особенно ее интересует цех по пошиву модной одежды. Виктория вынуждена оставить учебу и вернуться домой чтобы спасти семейное дело...
Качество: WEBRip
Видео: XviD, ~ 1616 Кбит/с, 720x400, 25 кадр/с
Аудио: AC3, 2 ch, 192 Кбит/с
Продолжительность: 16 х 00:46:00
Перевод: Не требуется
Cубтитры: нет

Скриншоты

MediaInfo

General
Complete name : C:\Users\DOM\Downloads\Отдай мою мечту.2018.WEBRip.by.Nicodem.Files-x\01.Отдай мою мечту.2018.WEBRip.by.Nicodem.Files-x.avi
Format : AVI
Format/Info : Audio Video Interleave
File size : 599 MiB
Duration : 46mn 4s
Overall bit rate : 1 819 Kbps
Writing application : VirtualDubMod 1.5.10.3 | www.virtualdub-fr.org || (build 2550/release)
Writing library : VirtualDubMod build 2550/release
Video
ID : 0
Format : MPEG-4 Visual
Format profile : Advanced Simple@L5
Format settings, BVOP : 1
Format settings, QPel : No
Format settings, GMC : No warppoints
Format settings, Matrix : Custom
Codec ID : XVID
Codec ID/Hint : XviD
Duration : 46mn 4s
Bit rate : 1 617 Kbps
Width : 720 pixels
Height : 400 pixels
Display aspect ratio : 16:9
Frame rate : 25.000 fps
Color space : YUV
Chroma subsampling : 4:2:0
Bit depth : 8 bits
Scan type : Progressive
Compression mode : Lossy
Bits/(Pixel*Frame) : 0.225
Stream size : 533 MiB (89%)
Writing library : XviD 73
Audio
ID : 1
Format : AC-3
Format/Info : Audio Coding 3
Mode extension : CM (complete main)
Codec ID : 2000
Duration : 46mn 4s
Bit rate mode : Constant
Bit rate : 192 Kbps
Channel(s) : 2 channels
Channel positions : Front: L R
Sampling rate : 48.0 KHz
Bit depth : 16 bits
Compression mode : Lossy
Stream size : 63.3 MiB (11%)
Alignment : Split accross interleaves
Interleave, duration : 40 ms (1.00 video frame)
Interleave, preload duration : 500 ms
Релиз от:
[Profile] [PM]
Display posts:    
Reply to topic

Current time is: 25-Aug 08:59

All times are UTC + 3



You cannot post new topics in this forum
You cannot reply to topics in this forum
You cannot edit your posts in this forum
You cannot delete your posts in this forum
You cannot vote in polls in this forum
You cannot attach files in this forum
You cannot download files in this forum