Отдай мою мечту [1-16 серии из 16] (2018) WEB-DLRip от Files-x

Reply to topic
 
Author Message

Nicodem ®

Gender: Male

Longevity: 1 year 10 months

Posts: 610

Post 24-Nov-2018 09:23

[Quote]

Отдай мою мечту
Год выпуска: 2018
Жанр: Мелодрама
Выпущено: Россия, Украина, Кинокомпания "Упс"
Режиссер: Дмитрий Матов
В ролях: Анастасия Иванова (II), Олег Гаас, Ирина Антоненко, Иван Соловьёв (III), Светлана Зельбет, Наталья Доля, Елена Стефанская, Лариса Руснак, Светлана Шекера, Оксана Жданова, Сергей Деньга, Фёдор Гуринец, Виктория Билан, Константин Корецкий, Игорь Рубашкин, Андрей Романий, Вера Кобзарь, Павел Алдошин, Александра Сизоненко, Екатерина Тышкевич, Евгений Ефремов, Андрей Мостренко, Константин Шафоренко, Константин Данилюк, Анна Сырбу, Анна Васильева (II)
О фильме: Адаптация корейского телесериала "Отражение желаний (Cinderella Man)" 2009 года. Жизнь молодой амбициозной Вики Григоренко, мечтающей стать известным дизайнером одежды, резко меняется, когда она знакомится с семьей Зборовских и начинает сотрудничать с их Модным домом. Неожиданно девушка становится свидетельницей странных событий, которые, на первый взгляд, не имеют объяснения. Вместе с другими героями истории ей предстоит раскрыть немало тайн, честно ответить себе на множество сложных вопросов, пережить потери и потрясения, чтобы в конце концов узнать, как это прекрасно и ответственно – не только мечтать, но и быть чьей-то мечтой.

Качество: WEB-DLRip
Видео: XviD, ~ 1604 Кбит/с, 720x400, 25 кадр/с
Аудио: AC3, 2 ch, 192 Кбит/с
Продолжительность: 16 х 00:46:00
Перевод: Не требуется
Cубтитры: нет

Скриншоты


MediaInfo

General
Complete name : C:01.Отдай мою мечту.(2018).WEB-DLRip.by.Nicodem.Files-x.avi
Format : AVI
Format/Info : Audio Video Interleave
File size : 595 MiB
Duration : 46mn 4s
Overall bit rate : 1 806 Kbps
Writing application : VirtualDubMod 1.5.10.3 | www.virtualdub-fr.org || (build 2550/release)
Writing library : VirtualDubMod build 2550/release
Video
ID : 0
Format : MPEG-4 Visual
Format profile : Advanced Simple@L5
Format settings, BVOP : 1
Format settings, QPel : No
Format settings, GMC : No warppoints
Format settings, Matrix : Custom
Codec ID : XVID
Codec ID/Hint : XviD
Duration : 46mn 4s
Bit rate : 1 604 Kbps
Width : 720 pixels
Height : 400 pixels
Display aspect ratio : 16:9
Frame rate : 25.000 fps
Color space : YUV
Chroma subsampling : 4:2:0
Bit depth : 8 bits
Scan type : Progressive
Compression mode : Lossy
Bits/(Pixel*Frame) : 0.223
Stream size : 529 MiB (89%)
Writing library : XviD 73
Audio
ID : 1
Format : AC-3
Format/Info : Audio Coding 3
Mode extension : CM (complete main)
Codec ID : 2000
Duration : 46mn 4s
Bit rate mode : Constant
Bit rate : 192 Kbps
Channel(s) : 2 channels
Channel positions : Front: L R
Sampling rate : 48.0 KHz
Bit depth : 16 bits
Compression mode : Lossy
Stream size : 63.3 MiB (11%)
Alignment : Split accross interleaves
Interleave, duration : 40 ms (1.00 video frame)
Interleave, preload duration : 500 ms

Раздача ведётся путём добавления новых серий

Внимание! Раздача ведётся путём добавления новых серий; при каждом добавлении создаётся новый торрент.
Чтобы начать докачку новой серии, пользователям необходимо сделать следующее:
1. Остановить скачивание;
2. Удалить старый торрент у себя из клиента (старые серии удалять не надо);
3. Скачать новый торрент и запустить его у себя в клиенте вместо старого, при этом указать клиенту путь в старую папку куда и должно происходить скачивание новых серий. Ваш клиент при этом должен произвести хеширование (проверку) старой папки и будет докачивать только те серии, которых у вас ещё нет. Старые серии при этом не удаляются, а продолжают раздаваться! Eсли вы уже удалили старые серии, то предотвратить повторную закачку старых серий можно, отжав галочку в соответствующих местах при запуске нового торрента.
Релиз от:

Release was prepared by RG Files-x

[Profile] [PM]

Nicodem ®

Gender: Male

Longevity: 1 year 10 months

Posts: 610

Post 11-Jul-2020 02:12 (after 1 year 7 months)

[Quote]

Замена на релиз без ЛОГОТИПА канала
[Profile] [PM]
Display posts:    
Reply to topic

Current time is: 28-Sep 20:27

All times are UTC + 3



You cannot post new topics in this forum
You cannot reply to topics in this forum
You cannot edit your posts in this forum
You cannot delete your posts in this forum
You cannot vote in polls in this forum
You cannot attach files in this forum
You cannot download files in this forum