Затмение [1-8 серии из 8] (2018) WEBRip 720p от Files-x

Reply to topic
 
Author Message

Nicodem ®

Gender: Male

Longevity: 6 months 5 days

Posts: 178

Post 24-Nov-2018 09:32

[Quote]

Затмение
Год выпуска: 2018
Жанр: Мелодрама
Выпущено: Россия, Украина, Кинокомпания "Упс"
Режиссер: Антон Азаров
В ролях: Барило Андрей, Великанова Елена, Гришак Ирина, Доля Наталья, Буйлук Богдан, Шульга Анастасия, Румик Анна, Ясиновский Роман
О фильме: Когда-то они учились в одной школе, умница и красавица Света Гнатюк и неприметный троечник Сережка Мамаев. Обычная история – он отчаянно в неё влюблен, а она совсем не обращала на него внимания. Прошло 20 лет. Уже никто не называет Мамаева пренебрежительно «Серый»: он владелец крупного агрохолдинга, холост, от женщин отбоя нет. Светлана живет значительно скромнее, замужем, счастлива в браке, есть дети. Случайная встреча и Сергей понимает, что всю жизнь любил только Светлану и ему нужна только она. Однако, как и в юности, Светлана не отвечает на его чувства. Но в этот раз Сергей не отступит: его маниакальное стремление заполучить женщину запускает цепочку трагических событий…
Качество: WEBRip 720p
Видео: MPEG-4 AVC, ~ 3000 Кбит/с, 1280х720, 25 кадр/с
Аудио: AC3, 2 ch, 192 Кбит/с
Продолжительность: 8 х 00:43:00
Перевод: Не требуется
Cубтитры: нет

Скриншоты





MediaInfo

General
Unique ID : 9493408319183306528247342842495753416 (0x7245D2AE2860E6DD7FDA6F9C131DCC8)
Complete name : C:\Users\DOM\Downloads\Затмение.2018.WEBRip (720p).by.Nicodem.Files-x\01.Затмение.2018.WEBRip (720p).by.Nicodem.Files-x.mkv
Format : Matroska
File size : 981 MiB
Duration : 43mn 3s
Overall bit rate : 3 186 Kbps
Writing application : Lavf56.36.100
Writing library : Lavf56.36.100
Video
ID : 1
Format : AVC
Format/Info : Advanced Video Codec
Format profile : High@L3.1
Format settings, CABAC : No
Format settings, ReFrames : 2 frames
Format settings, GOP : M=3, N=50
Codec ID : V_MPEG4/ISO/AVC
Duration : 43mn 3s
Bit rate mode : Constant
Bit rate : 3 000 Kbps
Width : 1 280 pixels
Height : 720 pixels
Display aspect ratio : 16:9
Frame rate : 25.000 fps
Standard : PAL
Color space : YUV
Chroma subsampling : 4:2:0
Bit depth : 8 bits
Scan type : Progressive
Bits/(Pixel*Frame) : 0.130
Stream size : 903 MiB (92%)
Language : English
Color primaries : BT.709-5, BT.1361, IEC 61966-2-4, SMPTE RP177
Transfer characteristics : BT.709-5, BT.1361
Matrix coefficients : BT.709-5, BT.1361, IEC 61966-2-4 709, SMPTE RP177
Audio
ID : 2
Format : AC-3
Format/Info : Audio Coding 3
Mode extension : CM (complete main)
Codec ID : A_AC3
Duration : 43mn 3s
Bit rate mode : Constant
Bit rate : 192 Kbps
Channel(s) : 2 channels
Channel positions : Front: L R
Sampling rate : 48.0 KHz
Bit depth : 16 bits
Compression mode : Lossy
Delay relative to video : 1mn 5s
Stream size : 59.1 MiB (6%)
Language : English / un
Релиз от:
[Profile] [PM]
Display posts:    
Reply to topic

Current time is: 23-May 08:51

All times are UTC + 3



You cannot post new topics in this forum
You cannot reply to topics in this forum
You cannot edit your posts in this forum
You cannot delete your posts in this forum
You cannot vote in polls in this forum
You cannot attach files in this forum
You cannot download files in this forum