Затмение [1-8 серии из 8] (2018) WEBRip от Files-x

Ответить на тему
 
Автор Сообщение

bond74 ®

Пол: Мужской

Стаж: 4 месяца 10 дней

Сообщений: 271

Создавать темы 26-Ноя-2018 21:36

[Цитировать]

Затмение Год выпуска: 2018
Жанр: Драма, мелодрама
Выпущено: Украина, УПС (Украинская продакшн студия) по заказу канала «Україна»
Режиссер: Антон Азаров
В ролях: Елена Великанова, Андрей Барило, Богдан Буйлук, Ирина Гришак, Наталья Доля, Анна Румик, Анастасия Шульга, Роман Ясиновский, Сергей Дзялик, Ли Берлинская, Александр Ярема
О фильме: Когда-то они учились в одной школе, умница и красавица Света Гнатюк и неприметный троечник Сережка Мамаев. Обычная история – он отчаянно в неё влюблен, а она совсем не обращала на него внимания. Прошло 20 лет. Уже никто не называет Мамаева пренебрежительно «Серый»: он владелец крупного агрохолдинга, холост, от женщин отбоя нет. Светлана живет значительно скромнее, замужем, счастлива в браке, есть дети. Случайная встреча - и Сергей понимает, что всю жизнь любил только Светлану и ему нужна только она. Однако, как и в юности, Светлана не отвечает на его чувства. Но в этот раз Сергей не отступит: его маниакальное стремление заполучить женщину запускает цепочку трагических событий...
Качество: WEBRip
Видео: XviD, 1500 Кбит/с, 720x400, 25 кадр/с
Аудио: AC3, 2 ch, 192 Кбит/с
Продолжительность: 8 х ~ 00:43:00
Перевод: Не требуется
Субтитры: нет

Скриншоты

MediaInfo

General
Complete name : D:\Затмение.2018.WEB-DLRip.Files-x\01.Затмение.2018.WEB-DLRip.Files-x.avi
Format : AVI
Format/Info : Audio Video Interleave
File size : 524 MiB
Duration : 43 min 3 s
Overall bit rate : 1 702 kb/s
Writing application : VirtualDubMod 1.5.10.3 | www.virtualdub-fr.org || (build 2550/release)
Writing library : VirtualDubMod build 2550/release
Video
ID : 0
Format : MPEG-4 Visual
Format profile : Advanced Simple@L5
Format settings : BVOP1 / Custom Matrix
Format settings, BVOP : 1
Format settings, QPel : No
Format settings, GMC : No warppoints
Format settings, Matrix : Custom
Codec ID : XVID
Codec ID/Hint : XviD
Duration : 43 min 3 s
Bit rate : 1 500 kb/s
Width : 720 pixels
Height : 400 pixels
Display aspect ratio : 16:9
Frame rate : 25.000 FPS
Color space : YUV
Chroma subsampling : 4:2:0
Bit depth : 8 bits
Scan type : Progressive
Compression mode : Lossy
Bits/(Pixel*Frame) : 0.208
Stream size : 462 MiB (88%)
Writing library : XviD 73
Audio
ID : 1
Format : AC-3
Format/Info : Audio Coding 3
Codec ID : 2000
Duration : 43 min 3 s
Bit rate mode : Constant
Bit rate : 192 kb/s
Channel(s) : 2 channels
Channel positions : Front: L R
Sampling rate : 48.0 kHz
Frame rate : 31.250 FPS (1536 SPF)
Bit depth : 16 bits
Compression mode : Lossy
Stream size : 59.1 MiB (11%)
Alignment : Split accross interleaves
Interleave, duration : 40 ms (1.00 video frame)
Interleave, preload duratio : 500 ms
Service kind : Complete Main
Релиз от:

Релиз подготовлен R.G.Files-x

[Профиль] [ЛС]
Показать сообщения:    
Ответить на тему

Текущее время: 25-Мар 13:51

Часовой пояс: UTC + 3



Вы не можете начинать темы
Вы не можете отвечать на сообщения
Вы не можете редактировать свои сообщения
Вы не можете удалять свои сообщения
Вы не можете голосовать в опросах
Вы не можете прикреплять файлы к сообщениям
Вы не можете скачивать файлы