Звоните ДиКаприо! [1-8 серии из 8] (2018) WEBRip от GeneralFilm

Reply to topic
 
Author Message

vsobbol ®

Gender: Male

Longevity: 7 months 4 days

Posts: 205

Location: Донецк

Post 24-Nov-2018 19:58

[Quote]

Звоните ДиКаприо!
Год выпуска: 2018
Жанр: Комедия, драма
Выпущено: Россия, Good Story Media по заказу телеканала ТНТ
Режиссер: Жора Крыжовников
В ролях: Александр Петров (Егор Румянцев), Андрей Бурковский (Лев, брат Егора), Юлия Александрова, Юлия Хлынина, Александра Ревенко, Антон Васильев, Анна Невская, Яна Кошкина, Игорь Миркурбанов, Наталья Потапова, Данила Якушев, Маруся Климова
О фильме: История об отношениях и судьбах двух братьев. Егор Румянцев — звезда хитового сериала про врачей. Он слетает с катушек от успеха: срывает съемки, путается в любовных связях, всем врет. Румянцев чувствует себя неуязвимым и живет для себя, ни во что не ставя чувства других людей. Но в один миг его мир переворачивается. Он узнает, что у него ВИЧ. Полная его противоположность — брат Лев. Он работает на кабельном телеканале «Муравей-ТВ», где ведет никому не нужную программу о полезных поделках. В съемной квартире его ждут беременная жена и две маленькие дочки. При этом ни денег, ни перспектив их заработать. Лев завидует брату и даже не мечтает занять его место, пока однажды ему не представляется такой шанс.

Качество: WEBRip
Видео: XviD build 73, 720x400 (16:9), 25.000 fps, ~ 1300 Kbps (~ 0.190 bit/pixel)
Аудио: 48.0 kHz, AC3, 2/0 ch, 192 kbps
Продолжительность: 8 x ~ 00:50:00
Перевод: Не требуется
Cубтитры: нет

Скриншоты

MediaInfo

General
Complete name : D:RazdachiZvonite.Dikaprio.2018.XviD.WEBRip.GeneralFilmZvonite.Dikaprio.e01.avi
Format : AVI
Format/Info : Audio Video Interleave
File size : 557 MiB
Duration : 48 min 58 s
Overall bit rate : 1 591 kb/s
Writing application : VirtualDubMod 1.5.10.3 | www.virtualdub-fr.org || (build 2550/release)
Writing library : VirtualDubMod build 2550/release
Video
ID : 0
Format : MPEG-4 Visual
Format profile : Advanced Simple@L5
Format settings, BVOP : 1
Format settings, QPel : No
Format settings, GMC : No warppoints
Format settings, Matrix : Custom
Codec ID : XVID
Codec ID/Hint : XviD
Duration : 48 min 58 s
Bit rate : 1 389 kb/s
Width : 720 pixels
Height : 400 pixels
Display aspect ratio : 16:9
Frame rate : 25.000 FPS
Color space : YUV
Chroma subsampling : 4:2:0
Bit depth : 8 bits
Scan type : Progressive
Compression mode : Lossy
Bits/(Pixel*Frame) : 0.193
Stream size : 487 MiB (87%)
Writing library : XviD 73
Audio
ID : 1
Format : AC-3
Format/Info : Audio Coding 3
Format settings, Endianness : Big
Codec ID : 2000
Duration : 48 min 58 s
Bit rate mode : Constant
Bit rate : 192 kb/s
Channel(s) : 2 channels
Channel positions : Front: L R
Sampling rate : 48.0 kHz
Frame rate : 31.250 FPS (1536 SPF)
Bit depth : 16 bits
Compression mode : Lossy
Stream size : 67.2 MiB (12%)
Alignment : Split accross interleaves
Interleave, duration : 40 ms (1.00 video frame)
Interleave, preload duratio : 500 ms
Service kind : Complete Main
Релиз от:
[Profile] [PM]
Display posts:    
Reply to topic

Current time is: 20-Jun 11:16

All times are UTC + 3



You cannot post new topics in this forum
You cannot reply to topics in this forum
You cannot edit your posts in this forum
You cannot delete your posts in this forum
You cannot vote in polls in this forum
You cannot attach files in this forum
You cannot download files in this forum