Звоните ДиКаприо! [1 сезон: 1-8 серии из 8] (2018) WEBRip 1080p

Ответить на тему
 
Автор Сообщение

White Smoke ®

Пол: Мужской

Стаж: 3 месяца 3 дня

Сообщений: 29

Создавать темы 17-Ноя-2018 18:32

[Цитировать]

Звоните ДиКаприо! Год выпуска: 2018
Жанр: комедия, драма
Выпущено: Россия
Режиссер: Жора Крыжовников
Продолжительность: 00:48:58
Перевод: Не требуется
Cубтитры: нет-В ролях: Александр Петров (Егор Румянцев), Андрей Бурковский (Лев, брат Егора), Юлия Александрова, Юлия Хлынина, Александра Ревенко, Антон Васильев, Анна Невская, Яна Кошкина, Игорь Миркурбанов, Наталья Потапова, Данила Якушев, Маруся Климова
-О фильме: История об отношениях и судьбах двух братьев. Егор Румянцев - звезда хитового сериала про врачей. Он слетает с катушек от успеха: срывает съемки, путается в любовных связях, всем врет. Румянцев чувствует себя неуязвимым и живет для себя, ни во что не ставя чувства других людей. Но в один миг его мир переворачивается. Он узнает, что у него ВИЧ
Качество: WEBRip 1080p
Видео: AVC, 1920x1080 (16:9), 4999 kbps, 25 fps, 0,096 bpp
Аудио: AC3 / 2.0 / 48 kHz / 192 kbps

Скриншоты

MediaInfo

General
Unique ID : 239162182815649098910747612524203579339 (0xB3ECF6007D47CF89A3820F1EB68197CB)
Complete name : E:\Zvonite.Dikaprio.2018.WEB-DL.(1080p).Getty\Zvonite.Dikaprio.e01.2018.WEB-DL.(1080p).Getty.mkv
Format : Matroska
Format version : Version 4 / Version 2
File size : 1.76 GiB
Duration : 48 min
Overall bit rate mode : Constant
Overall bit rate : 5 154 kb/s
Movie name : Zvonite.Dikaprio.e01.2018.WEB-DL.(1080p).Getty
Encoded date : UTC 2018-10-19 20:55:42
Writing application : mkvmerge v7.8.0 ('River Man') 32bit built on Mar 27 2015 16:18:02
Writing library : libebml v1.3.1 + libmatroska v1.4.2
Video
ID : 1
Format : AVC
Format/Info : Advanced Video Codec
Format profile : Baseline@L4
Format settings, CABAC : No
Format settings, ReFrames : 4 frames
Format settings, GOP : M=1, N=50
Codec ID : V_MPEG4/ISO/AVC
Duration : 48 min
Bit rate mode : Constant
Bit rate : 5 000 kb/s
Width : 1 920 pixels
Height : 1 080 pixels
Display aspect ratio : 16:9
Frame rate mode : Constant
Frame rate : 25.000 FPS
Standard : PAL
Color space : YUV
Chroma subsampling : 4:2:0
Bit depth : 8 bits
Scan type : Progressive
Bits/(Pixel*Frame) : 0.096
Stream size : 1.70 GiB (96%)
Default : Yes
Forced : No
Color range : Limited
Color primaries : BT.709
Transfer characteristics : BT.709
Matrix coefficients : BT.709
Audio
ID : 2
Format : AC-3
Format/Info : Audio Coding 3
Mode extension : CM (complete main)
Format settings, Endianness : Big
Codec ID : A_AC3
Duration : 48 min
Bit rate mode : Constant
Bit rate : 192 kb/s
Channel(s) : 2 channels
Channel positions : Front: L R
Sampling rate : 48.0 kHz
Frame rate : 31.250 FPS (1536 spf)
Compression mode : Lossy
Stream size : 67.2 MiB (4%)
Default : Yes
Forced : No

Раздача ведётся путём добавления новых серий

Внимание! Раздача ведётся путём добавления новых серий; при каждом добавлении создаётся новый торрент.
Чтобы начать докачку новой серии, пользователям необходимо сделать следующее:
1. Остановить скачивание;
2. Удалить старый торрент у себя из клиента (старые серии удалять не надо);
3. Скачать новый торрент и запустить его у себя в клиенте вместо старого, при этом указать клиенту путь в старую папку куда и должно происходить скачивание новых серий. Ваш клиент при этом должен произвести хеширование (проверку) старой папки и будет докачивать только те серии, которых у вас ещё нет. Старые серии при этом не удаляются, а продолжают раздаваться! Eсли вы уже удалили старые серии, то предотвратить повторную закачку старых серий можно, отжав галочку в соответствующих местах при запуске нового торрента.


Последний раз редактировалось: White Smoke (2018-11-18 03:22), всего редактировалось 1 раз
[Профиль] [ЛС]
Показать сообщения:    
Ответить на тему

Текущее время: 16-Фев 11:20

Часовой пояс: UTC + 3



Вы не можете начинать темы
Вы не можете отвечать на сообщения
Вы не можете редактировать свои сообщения
Вы не можете удалять свои сообщения
Вы не можете голосовать в опросах
Вы не можете прикреплять файлы к сообщениям
Вы не можете скачивать файлы