Разлучница [1-2 серии из 2] (2018) WEB-DL 1080p

Ответить на тему
 
Автор Сообщение

papa1951deda ®

Пол: Мужской

Стаж: 3 месяца 29 дней

Сообщений: 200

Откуда: Казахстан

Создавать темы 25-Ноя-2018 08:21

[Цитировать]

Разлучница Год выпуска: 2018
Жанр: Мелодрама
Выпущено: Кинокомпания "Русское"
Режиссёр: Роман Просвирнин
В ролях: Наталья Швец (II), Дмитрий Миллер, Ксения Лукьянчикова, Пётр Баранчеев, Екатерина Соломатина, Артём Борзовский, Роман Борзовский
О фильме: В счастливую и налаженную жизнь Натальи и Сергея, только что отпраздновавших 17-летие свадьбы, хитрой змеей вползает новая помощница Сергея, яркая и упертая в своих желаниях Ольга. Появление Ольги ложится на благодатную почву – у Сергея кризис среднего возраста, он жаждет перемен. Но Ольге мало тайной связи, она хочет развести Сергея с женой...
Качество: WEB-DL 1080p
Видео: MPEG 4 AVC, ~ 3360 Кбит/с, 1920x1080, 25 кадр/с
Аудио: AC3, 2 ch, 192 Кбит/с
Продолжительность: 2 x ~ 01:30:00
Перевод: Не требуется
Субтитры: Нет

Скриншоты

MediaInfo

General
Unique ID : 323980645865397867139929105155542617119 (0xF3BC671924B95734E05A4DDE13460C1F)
Complete name : D:\моё видио\Разлучница (2018).by.Алехаndr\Серия 1.by.Алехаndr.mkv
Format : Matroska
Format version : Version 4 / Version 2
File size : 2.28 GiB
Duration : 1h 30mn
Overall bit rate : 3 622 Kbps
Writing application : Lavf57.71.100
Writing library : Lavf57.71.100
Video
ID : 1
Format : AVC
Format/Info : Advanced Video Codec
Format profile : High@L4.0
Format settings, CABAC : Yes
Format settings, ReFrames : 3 frames
Codec ID : V_MPEG4/ISO/AVC
Duration : 1h 30mn
Bit rate : 3 358 Kbps
Width : 1 920 pixels
Height : 1 080 pixels
Display aspect ratio : 16:9
Frame rate mode : Constant
Frame rate : 25.000 fps
Color space : YUV
Chroma subsampling : 4:2:0
Bit depth : 8 bits
Scan type : Progressive
Bits/(Pixel*Frame) : 0.065
Stream size : 2.12 GiB (93%)
Default : Yes
Forced : No
Color primaries : BT.709
Transfer characteristics : BT.709
Matrix coefficients : BT.709
HANDLER_NAME : VideoHandler
DURATION : 01:30:16.000000000
Audio
ID : 2
Format : AC-3
Format/Info : Audio Coding 3
Mode extension : CM (complete main)
Format settings, Endianness : Big
Codec ID : A_AC3
Duration : 1h 30mn
Bit rate mode : Constant
Bit rate : 192 Kbps
Channel(s) : 2 channels
Channel positions : Front: L R
Sampling rate : 48.0 KHz
Bit depth : 16 bits
Compression mode : Lossy
Stream size : 124 MiB (5%)
Default : Yes
Forced : No
HANDLER_NAME : SoundHandler
DURATION : 01:30:16.064000000
[Профиль] [ЛС]
Показать сообщения:    
Ответить на тему

Текущее время: 20-Мар 13:17

Часовой пояс: UTC + 3



Вы не можете начинать темы
Вы не можете отвечать на сообщения
Вы не можете редактировать свои сообщения
Вы не можете удалять свои сообщения
Вы не можете голосовать в опросах
Вы не можете прикреплять файлы к сообщениям
Вы не можете скачивать файлы