Разлучница [Cерии 1-2 из 2] (2018) WEB-DLRip от Files-x

Ответить на тему
 
Автор Сообщение

papa1951deda ®

Пол: Мужской

Стаж: 4 месяца 1 день

Сообщений: 201

Откуда: Казахстан

Создавать темы 25-Ноя-2018 11:13

[Цитировать]

Разлучница Год выпуска: 2018
Жанр: Мелодрама
Выпущено: Кинокомпания "Русское"
Режиссёр: Роман Просвирнин
В ролях: Наталья Швец (II), Дмитрий Миллер, Ксения Лукьянчикова, Пётр Баранчеев, Екатерина Соломатина, Артём Борзовский, Роман Борзовский
О фильме: В счастливую и налаженную жизнь Натальи и Сергея, только что отпраздновавших 17-летие свадьбы, хитрой змеей вползает новая помощница Сергея, яркая и упертая в своих желаниях Ольга. Появление Ольги ложится на благодатную почву – у Сергея кризис среднего возраста, он жаждет перемен. Но Ольге мало тайной связи, она хочет развести Сергея с женой...
Качество: WEB-DLRip
Видео: XviD, ~ 1600 Кбит/с, 720x400, 25 кадр/с
Аудио: AC3, 2 ch, 192 Кбит/с
Продолжительность: 2 x ~ 01:30:00
Перевод: Не требуется
Субтитры: Нет

Скриншоты

MediaInfo

General
Complete name : D:\моё видио\Разлучница. (2018) WEB-DLRip.Files-x\01.Разлучница.(2018).WEB-DLRip.by.Серый1779.Files-x.avi
Format : AVI
Format/Info : Audio Video Interleave
File size : 1.14 GiB
Duration : 1h 30mn
Overall bit rate : 1 801 Kbps
Writing application : VirtualDubMod 1.5.10.3 | www.virtualdub-fr.org || (build 2550/release)
Writing library : VirtualDubMod build 2550/release
Video
ID : 0
Format : MPEG-4 Visual
Format profile : Advanced Simple@L5
Format settings, BVOP : 1
Format settings, QPel : No
Format settings, GMC : No warppoints
Format settings, Matrix : Custom
Codec ID : XVID
Codec ID/Hint : XviD
Duration : 1h 30mn
Bit rate : 1 529 Kbps
Width : 720 pixels
Height : 400 pixels
Display aspect ratio : 16:9
Frame rate : 25.000 fps
Color space : YUV
Chroma subsampling : 4:2:0
Bit depth : 8 bits
Scan type : Progressive
Compression mode : Lossy
Bits/(Pixel*Frame) : 0.212
Stream size : 987 MiB (85%)
Writing library : XviD 73
Audio
ID : 1
Format : AC-3
Format/Info : Audio Coding 3
Mode extension : CM (complete main)
Format settings, Endianness : Big
Codec ID : 2000
Duration : 1h 30mn
Bit rate mode : Constant
Bit rate : 192 Kbps
Channel(s) : 2 channels
Channel positions : Front: L R
Sampling rate : 48.0 KHz
Bit depth : 16 bits
Compression mode : Lossy
Stream size : 124 MiB (11%)
Alignment : Split accross interleaves
Релиз от:

Релиз подготовлен R.G.Files-x

[Профиль] [ЛС]
Показать сообщения:    
Ответить на тему

Текущее время: 22-Мар 10:26

Часовой пояс: UTC + 3



Вы не можете начинать темы
Вы не можете отвечать на сообщения
Вы не можете редактировать свои сообщения
Вы не можете удалять свои сообщения
Вы не можете голосовать в опросах
Вы не можете прикреплять файлы к сообщениям
Вы не можете скачивать файлы