Разлучница [Cерии 1-2 из 2] (2018) WEB-DLRip от Files-x

Reply to topic
 
Author Message

papa1951deda ®

Gender: Male

Longevity: 8 months 2 days

Posts: 271

Location: Казахстан

Post 25-Nov-2018 11:13

[Quote]

Разлучница Год выпуска: 2018
Жанр: Мелодрама
Выпущено: Кинокомпания "Русское"
Режиссёр: Роман Просвирнин
В ролях: Наталья Швец (II), Дмитрий Миллер, Ксения Лукьянчикова, Пётр Баранчеев, Екатерина Соломатина, Артём Борзовский, Роман Борзовский
О фильме: В счастливую и налаженную жизнь Натальи и Сергея, только что отпраздновавших 17-летие свадьбы, хитрой змеей вползает новая помощница Сергея, яркая и упертая в своих желаниях Ольга. Появление Ольги ложится на благодатную почву – у Сергея кризис среднего возраста, он жаждет перемен. Но Ольге мало тайной связи, она хочет развести Сергея с женой...
Качество: WEB-DLRip
Видео: XviD, ~ 1600 Кбит/с, 720x400, 25 кадр/с
Аудио: AC3, 2 ch, 192 Кбит/с
Продолжительность: 2 x ~ 01:30:00
Перевод: Не требуется
Субтитры: Нет

Скриншоты

MediaInfo

General
Complete name : D:\моё видио\Разлучница. (2018) WEB-DLRip.Files-x\01.Разлучница.(2018).WEB-DLRip.by.Серый1779.Files-x.avi
Format : AVI
Format/Info : Audio Video Interleave
File size : 1.14 GiB
Duration : 1h 30mn
Overall bit rate : 1 801 Kbps
Writing application : VirtualDubMod 1.5.10.3 | www.virtualdub-fr.org || (build 2550/release)
Writing library : VirtualDubMod build 2550/release
Video
ID : 0
Format : MPEG-4 Visual
Format profile : Advanced Simple@L5
Format settings, BVOP : 1
Format settings, QPel : No
Format settings, GMC : No warppoints
Format settings, Matrix : Custom
Codec ID : XVID
Codec ID/Hint : XviD
Duration : 1h 30mn
Bit rate : 1 529 Kbps
Width : 720 pixels
Height : 400 pixels
Display aspect ratio : 16:9
Frame rate : 25.000 fps
Color space : YUV
Chroma subsampling : 4:2:0
Bit depth : 8 bits
Scan type : Progressive
Compression mode : Lossy
Bits/(Pixel*Frame) : 0.212
Stream size : 987 MiB (85%)
Writing library : XviD 73
Audio
ID : 1
Format : AC-3
Format/Info : Audio Coding 3
Mode extension : CM (complete main)
Format settings, Endianness : Big
Codec ID : 2000
Duration : 1h 30mn
Bit rate mode : Constant
Bit rate : 192 Kbps
Channel(s) : 2 channels
Channel positions : Front: L R
Sampling rate : 48.0 KHz
Bit depth : 16 bits
Compression mode : Lossy
Stream size : 124 MiB (11%)
Alignment : Split accross interleaves
Релиз от:
[Profile] [PM]
Display posts:    
Reply to topic

Current time is: 23-Jul 11:49

All times are UTC + 3



You cannot post new topics in this forum
You cannot reply to topics in this forum
You cannot edit your posts in this forum
You cannot delete your posts in this forum
You cannot vote in polls in this forum
You cannot attach files in this forum
You cannot download files in this forum