Купчино [1-20 серии из 20] (2018) WEBRip от Files-x

Ответить на тему
 
Автор Сообщение

bond74 ®

Пол: Мужской

Стаж: 4 месяца 10 дней

Сообщений: 271

Создавать темы 25-Ноя-2018 12:05

[Цитировать]

Купчино Год выпуска: 2018
Жанр: Детектив, криминальный фильм
Выпущено: Россия, Триикс Медиа
Режиссер: Арменак Назикян, Максим Бриус, Виктор Шкуратов, Алан Дзоциев
В ролях: Григорий Некрасов, Алексей Кравченко, Денис Пьянов, Иван Решетняк, Роман Агеев, Вячеслав Аркунов, Елизавета Александрова, Алексей Одинг, Дмитрий Лебедев, Алексей Красноцветов, Егор Шмыга, Екатерина Панасюк, Пётр Харченко, Степан Пивкин, Тина Тарусина, Евгений Лямин, Мария Цветкова, Василий Башмаков, Денис Моисеев, Лора Коробских, Александр Клемантович
О фильме: 1981 год. Несостоявшегося рок-музыканта Фёдора родители перевозят из Москвы в Ленинград, где родственник устраивает его стажёром в опорный пункт милиции. Отношения между свободолюбивым юным музыкантом и его новым начальником, суровым участковым Васильичем, складываются не сразу. Васильич не воспринимает строптивого подчинённого всерьёз, поручая ему мелкие бытовые задания, а Фёдор мечтает покинуть ненавистную службу.

Качество: WEBRip
Видео: XviD, ~ 1500 Кбит/с, 720x400, 25 кадр/с
Аудио: AC3, 2 ch, 192 Кбит/с
Продолжительность: 20 x ~ 00:50:00
Перевод: Не требуется

Скриншоты

MediaInfo

General
Complete name : D:\моё видио\Купчино (2018)..WEB-DLRip.Files-x\01,Купчино (2018)..WEB-DLRip.Files-x.avi
Format : AVI
Format/Info : Audio Video Interleave
File size : 622 MiB
Duration : 51mn 4s
Overall bit rate : 1 701 Kbps
Writing application : VirtualDubMod 1.5.10.3 | www.virtualdub-fr.org || (build 2550/release)
Writing library : VirtualDubMod build 2550/release
Video
ID : 0
Format : MPEG-4 Visual
Format profile : Advanced Simple@L5
Format settings, BVOP : 1
Format settings, QPel : No
Format settings, GMC : No warppoints
Format settings, Matrix : Custom
Codec ID : XVID
Codec ID/Hint : XviD
Duration : 51mn 4s
Bit rate : 1 500 Kbps
Width : 720 pixels
Height : 400 pixels
Display aspect ratio : 16:9
Frame rate : 25.000 fps
Color space : YUV
Chroma subsampling : 4:2:0
Bit depth : 8 bits
Scan type : Progressive
Compression mode : Lossy
Bits/(Pixel*Frame) : 0.208
Stream size : 548 MiB (88%)
Writing library : XviD 73
Audio
ID : 1
Format : AC-3
Format/Info : Audio Coding 3
Mode extension : CM (complete main)
Format settings, Endianness : Big
Codec ID : 2000
Duration : 51mn 4s
Bit rate mode : Constant
Bit rate : 192 Kbps
Channel(s) : 2 channels
Channel positions : Front: L R
Sampling rate : 48.0 KHz
Bit depth : 16 bits
Compression mode : Lossy
Stream size : 70.1 MiB (11%)
Alignment : Split accross interleaves
Interleave, duration : 40 ms (1.00 video frame)
Interleave, preload duration : 500 ms
Релиз от:

Релиз подготовлен R.G.Files-x

[Профиль] [ЛС]

papa1951deda

Пол: Мужской

Стаж: 4 месяца 4 дня

Сообщений: 202

Откуда: Казахстан

Создавать темы 25-Ноя-2018 13:19 (спустя 1 час 14 минут)

[Цитировать]

Отлично
[Профиль] [ЛС]
Показать сообщения:    
Ответить на тему

Текущее время: 25-Мар 13:48

Часовой пояс: UTC + 3



Вы не можете начинать темы
Вы не можете отвечать на сообщения
Вы не можете редактировать свои сообщения
Вы не можете удалять свои сообщения
Вы не можете голосовать в опросах
Вы не можете прикреплять файлы к сообщениям
Вы не можете скачивать файлы