Купчино [1-20 серии из 20] (2018) WEBRip от GeneralFilm

Ответить на тему
 
Автор Сообщение

vsobbol ®

Пол: Мужской

Стаж: 4 месяца 9 дней

Сообщений: 143

Откуда: Донецк

Создавать темы 18-Ноя-2018 00:23

[Цитировать]

Купчино
Год выпуска: 2018
Жанр: Детектив, криминальный фильм
Выпущено: Триикс Медиа
Режиссер: Арменак Назикян, Максим Бриус, Виктор Шкуратов, Алан Дзоциев
В ролях: Григорий Некрасов, Алексей Кравченко, Денис Пьянов, Иван Решетняк, Роман Агеев, Вячеслав Аркунов, Елизавета Александрова, Алексей Одинг, Дмитрий Лебедев, Алексей Красноцветов, Егор Шмыга, Екатерина Панасюк, Пётр Харченко, Степан Пивкин, Тина Тарусина, Евгений Лямин, Мария Цветкова, Василий Башмаков, Денис Моисеев, Лора Коробских, Александр Клемантович
О фильме: 1981 год. Несостоявшегося рок-музыканта Фёдора родители перевозят из Москвы в Ленинград, где родственник устраивает его стажёром в опорный пункт милиции. Отношения между свободолюбивым юным музыкантом и его новым начальником, суровым участковым Васильичем, складываются не сразу. Васильич не воспринимает строптивого подчинённого всерьёз, поручая ему мелкие бытовые задания, а Фёдор мечтает покинуть ненавистную службу.

Качество: WEBRip
Видео: XviD build 73, 720x400 (16:9), 25.000 fps, ~ 1350 Kbps (~ 0.185 bit/pixel)
Аудио: 48.0 kHz, AC3, 2/0 ch, 192 kbps
Продолжительность: 20 x ~ 00:49:00
Перевод: Не требуется
Субтитры: нет

Скриншоты

MediaInfo

General
Complete name : D:RazdachiKupchino.2018.XviD.WEBRip.GeneralFilmKupchino.e01.avi
Format : AVI
Format/Info : Audio Video Interleave
File size : 557 MiB
Duration : 50 min 57 s
Overall bit rate : 1 528 kb/s
Writing application : VirtualDubMod 1.5.10.3 | www.virtualdub-fr.org || (build 2550/release)
Writing library : VirtualDubMod build 2550/release
Video
ID : 0
Format : MPEG-4 Visual
Format profile : Advanced Simple@L5
Format settings, BVOP : 1
Format settings, QPel : No
Format settings, GMC : No warppoints
Format settings, Matrix : Custom
Codec ID : XVID
Codec ID/Hint : XviD
Duration : 50 min 57 s
Bit rate : 1 327 kb/s
Width : 720 pixels
Height : 400 pixels
Display aspect ratio : 16:9
Frame rate : 25.000 FPS
Color space : YUV
Chroma subsampling : 4:2:0
Bit depth : 8 bits
Scan type : Progressive
Compression mode : Lossy
Bits/(Pixel*Frame) : 0.184
Stream size : 484 MiB (87%)
Writing library : XviD 73
Audio
ID : 1
Format : AC-3
Format/Info : Audio Coding 3
Format settings, Endianness : Big
Codec ID : 2000
Duration : 50 min 57 s
Bit rate mode : Constant
Bit rate : 192 kb/s
Channel(s) : 2 channels
Channel positions : Front: L R
Sampling rate : 48.0 kHz
Frame rate : 31.250 FPS (1536 SPF)
Bit depth : 16 bits
Compression mode : Lossy
Stream size : 70.0 MiB (13%)
Alignment : Split accross interleaves
Interleave, duration : 40 ms (1.00 video frame)
Interleave, preload duratio : 500 ms
Service kind : Complete Main
Релиз от:
[Профиль] [ЛС]
Показать сообщения:    
Ответить на тему

Текущее время: 25-Мар 13:53

Часовой пояс: UTC + 3



Вы не можете начинать темы
Вы не можете отвечать на сообщения
Вы не можете редактировать свои сообщения
Вы не можете удалять свои сообщения
Вы не можете голосовать в опросах
Вы не можете прикреплять файлы к сообщениям
Вы не можете скачивать файлы