Неродная [1-2 серии из 2] (2018) WEBRip 720p от Files-x

Reply to topic
 
Author Message

Nicodem ®

Gender: Male

Longevity: 6 months 8 days

Posts: 178

Post 25-Nov-2018 12:45

[Quote]

Неродная
Год выпуска: 2018
Жанр: Мелодрама
Выпущено: Россия, Украина, Беларусь, Продюсерский центр "Фабула", "ЕйБиСи Фильм Украина", Vileton Films
Режиссер: Александр Грабарь
В ролях: Анна Васильева, Сергей Фролов, Татьяна Казючиц, Антонина Макарчук, Сергей Мухин, Алексей Смолка, Александра Сизоненко, Евгений Никитин, Лариса Маршалова, Роман Полянский
О фильме: Освободившаяся из колонии несовершеннолетняя Женя узнает, что ей некуда идти – квартира, в которой они жили с матерью, продана, сама мать в психушке, а сводная сестра Ирина даже не пускает на порог. Муж Ирины Саша проникается к несчастной девушке сочувствием и, несмотря на протесты Ирины, предлагает Жене пожить у них. Женя хочет узнать, из-за кого погибла ее лучшая подруга, а сама Женя попала за решетку. Ирина считает затею безумной, да и полиция давно закрыла это дело. Но Женя начинает собственное расследование...
Качество: WEBRip 720p
Видео: MPEG-4 AVC, ~ 3000 Кбит/с, 1280х720, 25 кадр/с
Аудио: AC3, 2 ch, 192 Кбит/с
Продолжительность: 2 х 01:32:40
Перевод: Не требуется
Cубтитры: нет

Скриншоты



MediaInfo

General
Unique ID : 53036885775286588058179015682360785624 (0x27E6885B9092851F3FF0E563467EBAD8)
Complete name : C:\Users\DOM\Downloads\Неродная.2018.WEBRip (720p).by.Nicodem.Files-x\01.Неродная.2018.WEBRip (720p).by.Nicodem.Files-x.mkv
Format : Matroska
File size : 2.05 GiB
Duration : 1h 32mn
Overall bit rate : 3 187 Kbps
Writing application : Lavf56.36.100
Writing library : Lavf56.36.100
Video
ID : 1
Format : AVC
Format/Info : Advanced Video Codec
Format profile : High@L3.1
Format settings, CABAC : No
Format settings, ReFrames : 2 frames
Format settings, GOP : M=3, N=50
Codec ID : V_MPEG4/ISO/AVC
Duration : 1h 32mn
Bit rate mode : Constant
Bit rate : 3 000 Kbps
Width : 1 280 pixels
Height : 720 pixels
Display aspect ratio : 16:9
Frame rate : 25.000 fps
Standard : PAL
Color space : YUV
Chroma subsampling : 4:2:0
Bit depth : 8 bits
Scan type : Progressive
Bits/(Pixel*Frame) : 0.130
Stream size : 1.89 GiB (92%)
Language : English
Color primaries : BT.709-5, BT.1361, IEC 61966-2-4, SMPTE RP177
Transfer characteristics : BT.709-5, BT.1361
Matrix coefficients : BT.709-5, BT.1361, IEC 61966-2-4 709, SMPTE RP177
Audio
ID : 2
Format : AC-3
Format/Info : Audio Coding 3
Mode extension : CM (complete main)
Codec ID : A_AC3
Duration : 1h 32mn
Bit rate mode : Constant
Bit rate : 192 Kbps
Channel(s) : 2 channels
Channel positions : Front: L R
Sampling rate : 48.0 KHz
Bit depth : 16 bits
Compression mode : Lossy
Delay relative to video : 1mn 5s
Stream size : 127 MiB (6%)
Language : English / un
Релиз от:
[Profile] [PM]
Display posts:    
Reply to topic

Current time is: 25-May 15:10

All times are UTC + 3



You cannot post new topics in this forum
You cannot reply to topics in this forum
You cannot edit your posts in this forum
You cannot delete your posts in this forum
You cannot vote in polls in this forum
You cannot attach files in this forum
You cannot download files in this forum