Неродная [1-2 серии из 2] (2018) WEBRip от Files-x

Reply to topic
 
Author Message

Nicodem ®

Gender: Male

Longevity: 11 months 27 days

Posts: 279

Post 25-Nov-2018 12:50

[Quote]

Неродная
Год выпуска: 2018
Жанр: Мелодрама
Выпущено: Россия, Украина, Беларусь, Продюсерский центр "Фабула", "ЕйБиСи Фильм Украина", Vileton Films
Режиссер: Александр Грабарь
В ролях: Анна Васильева, Сергей Фролов, Татьяна Казючиц, Антонина Макарчук, Сергей Мухин, Алексей Смолка, Александра Сизоненко, Евгений Никитин, Лариса Маршалова, Роман Полянский
О фильме: Освободившаяся из колонии несовершеннолетняя Женя узнает, что ей некуда идти – квартира, в которой они жили с матерью, продана, сама мать в психушке, а сводная сестра Ирина даже не пускает на порог. Муж Ирины Саша проникается к несчастной девушке сочувствием и, несмотря на протесты Ирины, предлагает Жене пожить у них. Женя хочет узнать, из-за кого погибла ее лучшая подруга, а сама Женя попала за решетку. Ирина считает затею безумной, да и полиция давно закрыла это дело. Но Женя начинает собственное расследование...
Качество: WEBRip
Видео: XviD, ~ 1929 Кбит/с, 720x400, 25 кадр/с
Аудио: AC3, 2 ch, 192 Кбит/с
Продолжительность: 2 х 01:32:40
Перевод: Не требуется
Cубтитры: нет

Скриншоты



MediaInfo

General
Complete name : C:\Users\DOM\Downloads\Неродная.2018.WEBRip.by.Nicodem.Files-x\01.Неродная.2018.WEBRip.by.Nicodem.Files-x.avi
Format : AVI
Format/Info : Audio Video Interleave
File size : 1.37 GiB
Duration : 1h 32mn
Overall bit rate : 2 131 Kbps
Writing application : VirtualDubMod 1.5.10.3 | www.virtualdub-fr.org || (build 2550/release)
Writing library : VirtualDubMod build 2550/release
Video
ID : 0
Format : MPEG-4 Visual
Format profile : Advanced Simple@L5
Format settings, BVOP : 1
Format settings, QPel : No
Format settings, GMC : No warppoints
Format settings, Matrix : Custom
Codec ID : XVID
Codec ID/Hint : XviD
Duration : 1h 32mn
Bit rate : 1 929 Kbps
Width : 720 pixels
Height : 400 pixels
Display aspect ratio : 16:9
Frame rate : 25.000 fps
Color space : YUV
Chroma subsampling : 4:2:0
Bit depth : 8 bits
Scan type : Progressive
Compression mode : Lossy
Bits/(Pixel*Frame) : 0.268
Stream size : 1.24 GiB (91%)
Writing library : XviD 73
Audio
ID : 1
Format : AC-3
Format/Info : Audio Coding 3
Mode extension : CM (complete main)
Codec ID : 2000
Duration : 1h 32mn
Bit rate mode : Constant
Bit rate : 192 Kbps
Channel(s) : 2 channels
Channel positions : Front: L R
Sampling rate : 48.0 KHz
Bit depth : 16 bits
Compression mode : Lossy
Stream size : 127 MiB (9%)
Alignment : Split accross interleaves
Interleave, duration : 40 ms (1.00 video frame)
Interleave, preload duration : 500 ms
Релиз от:
[Profile] [PM]
Display posts:    
Reply to topic

Current time is: 15-Nov 01:42

All times are UTC + 3



You cannot post new topics in this forum
You cannot reply to topics in this forum
You cannot edit your posts in this forum
You cannot delete your posts in this forum
You cannot vote in polls in this forum
You cannot attach files in this forum
You cannot download files in this forum