Семейная тайна [1 сезон: 1-4 cерии из 4] (2018) WEB-DL 720p от Files-x

Reply to topic
 
Author Message

Nicodem ®

Gender: Male

Longevity: 11 months 2 days

Posts: 255

Post 17-Nov-2018 16:31

[Quote]

Семейная тайна
Год выпуска: 2018
Жанр: Мелодрама, детектив
Выпущено: Россия, Эволюшн Пикчерс
Режиссер: Денис Елеонский
В ролях: Екатерина Решетникова, Геннадий Смирнов, Сергей Паршин, Мария Валешная, Елена Радевич, Елена Симонова, Валерий Кухарешин, Роман Грибков, Владимир Крылов, Антон Багров, Анна Табанина, Денис Елеонский, Виктория Заболотная
О фильме: На праздник собираются все родственники и друзья семьи, и Маргарита просит Олега понаблюдать за гостями. Он присматривается к собравшимся и понимает, что в смерти главы семьи могут быть заинтересованы все: старинный друг с таинственной спутницей, молодая любовница и даже преданная горничная. На следующую ночь после праздника действительно происходит убийство, но жертвой становится совершенно не Романовский. Олегу предстоит распутать роковой клубок семейных тайн и снять все маски с подозреваемых.
Качество: WEB-DL 720p
Видео: MPEG-4 AVC, ~ 3500 Кбит/с, 1280x720, 25 Кадр/с
Аудио: AC3, 2 ch, 192 Кбит/с
Продолжительность: 4 х 00:48:00
Перевод: Не требуется
Cубтитры: нет

Скриншоты




MediaInfo

Общее
Уникальный идентификатор : 136553228711534294286362436743111215608 (0x66BB31F9CBB49FA2C322FED00A2989F8)
Полное имя : C:\Users\DOM\Downloads\Семейная тайна.2018.WEB-DL (720p).by.Nicodem.Files-x\01.Семейная тайна.2018.WEB-DL (720p).by.Nicodem.Files-x.mkv
Формат : Matroska
Размер файла : 1,20 Гбайт
Продолжительность : 46 м.
Общий поток : 3693 Кбит/сек
Программа кодирования : Lavf56.36.100
Библиотека кодирования : Lavf56.36.100
Видео
Идентификатор : 1
Формат : AVC
Формат/Информация : Advanced Video Codec
Профиль формата : High@L4.1
Параметр CABAC формата : Да
Параметр ReFrames формата : 5 кадров
Идентификатор кодека : V_MPEG4/ISO/AVC
Продолжительность : 46 м.
Битрейт : 3500 Кбит/сек
Ширина : 1280 пикс.
Высота : 720 пикс.
Соотношение сторон : 16:9
Режим частоты кадров : Переменный
Частота кадров : 25,000 кадр/сек
Цветовое пространство : YUV
Подвыборка цветности : 4:2:0
Битовая глубина : 8 бит
Тип развёртки : Прогрессивная
Бит/(Пиксели*Кадры) : 0.152
Размер потока : 1,12 Гбайт (93%)
Библиотека кодирования : x264 core 148
Настройки программы : cabac=1 / ref=5 / deblock=1:0:0 / analyse=0x3:0x113 / me=hex / subme=8 / psy=1 / psy_rd=1.00:0.00 / mixed_ref=1 / me_range=16 / chroma_me=1 / trellis=2 / 8x8dct=1 / cqm=0 / deadzone=21,11 / fast_pskip=1 / chroma_qp_offset=-2 / threads=22 / lookahead_threads=3 / sliced_threads=0 / nr=0 / decimate=1 / interlaced=0 / bluray_compat=0 / constrained_intra=0 / bframes=3 / b_pyramid=2 / b_adapt=1 / b_bias=0 / direct=3 / weightb=1 / open_gop=0 / weightp=2 / keyint=250 / keyint_min=25 / scenecut=0 / intra_refresh=0 / rc_lookahead=50 / rc=abr / mbtree=1 / bitrate=3500 / ratetol=1.0 / qcomp=0.60 / qpmin=0 / qpmax=69 / qpstep=4 / ip_ratio=1.40 / aq=1:1.00
Язык : English
Аудио
Идентификатор : 2
Формат : AC-3
Формат/Информация : Audio Coding 3
Расширение режима : CM (complete main)
Идентификатор кодека : A_AC3
Продолжительность : 46 м.
Вид битрейта : Постоянный
Битрейт : 192 Кбит/сек
Каналы : 2 канала
Расположение каналов : Front: L R
Частота : 44,1 КГц
Битовая глубина : 16 бит
Метод сжатия : С потерями
Задержка видео : 1 м. 5 с.
Размер потока : 64,0 Мбайт (5%)
Язык : English / un
Релиз от:
[Profile] [PM]
Display posts:    
Reply to topic

Current time is: 19-Oct 16:39

All times are UTC + 3



You cannot post new topics in this forum
You cannot reply to topics in this forum
You cannot edit your posts in this forum
You cannot delete your posts in this forum
You cannot vote in polls in this forum
You cannot attach files in this forum
You cannot download files in this forum