Семейная тайна [1 сезон: 1-4 серии из 4] (2018) WEB-DLRip от Files-x

Ответить на тему
 
Автор Сообщение

Nicodem ®

Пол: Мужской

Стаж: 3 месяца

Сообщений: 173

Создавать темы 17-Ноя-2018 16:33

[Цитировать]

Семейная тайна
Год выпуска: 2018
Жанр: Мелодрама, детектив
Выпущено: Россия, Эволюшн Пикчерс
Режиссер: Денис Елеонский
В ролях: Екатерина Решетникова, Геннадий Смирнов, Сергей Паршин, Мария Валешная, Елена Радевич, Елена Симонова, Валерий Кухарешин, Роман Грибков, Владимир Крылов, Антон Багров, Анна Табанина, Денис Елеонский, Виктория Заболотная
О фильме: На праздник собираются все родственники и друзья семьи, и Маргарита просит Олега понаблюдать за гостями. Он присматривается к собравшимся и понимает, что в смерти главы семьи могут быть заинтересованы все: старинный друг с таинственной спутницей, молодая любовница и даже преданная горничная. На следующую ночь после праздника действительно происходит убийство, но жертвой становится совершенно не Романовский. Олегу предстоит распутать роковой клубок семейных тайн и снять все маски с подозреваемых.
Качество: WEB-DLRip
Видео: XviD, ~ 1890 Кбит/с, 720x400, 25 Кадр/с
Аудио: AC3, 2 ch, 192 Кбит/с
Продолжительность: 4 х 00:48:00
Перевод: Не требуется
Cубтитры: нет

Скриншоты




MediaInfo

Общее
Полное имя : C:\Users\DOM\Downloads\Семейная тайна.2018.WEB-DLRip.by.Nicodem.Files-x\01.Семейная тайна.2018.WEB-DLRip.by.Nicodem.Files-x.avi
Формат : AVI
Формат/Информация : Audio Video Interleave
Размер файла : 698 Мбайт
Продолжительность : 46 м.
Общий поток : 2092 Кбит/сек
Программа кодирования : VirtualDubMod 1.5.10.3 | www.virtualdub-fr.org || (build 2550/release)
Библиотека кодирования : VirtualDubMod build 2550/release
Видео
Идентификатор : 0
Формат : MPEG-4 Visual
Профиль формата : Advanced Simple@L5
Параметр BVOP формата : 1
Параметр QPel формата : Нет
Параметр GMC формата : Без точки перехода
Параметр матрицы формата : Выборочная
Идентификатор кодека : XVID
Идентификатор кодека/Подсказка : XviD
Продолжительность : 46 м.
Битрейт : 1890 Кбит/сек
Ширина : 720 пикс.
Высота : 400 пикс.
Соотношение сторон : 16:9
Частота кадров : 25,000 кадр/сек
Цветовое пространство : YUV
Подвыборка цветности : 4:2:0
Битовая глубина : 8 бит
Тип развёртки : Прогрессивная
Метод сжатия : С потерями
Бит/(Пиксели*Кадры) : 0.263
Размер потока : 630 Мбайт (90%)
Библиотека кодирования : XviD 73
Аудио
Идентификатор : 1
Формат : AC-3
Формат/Информация : Audio Coding 3
Расширение режима : CM (complete main)
Идентификатор кодека : 2000
Продолжительность : 46 м.
Вид битрейта : Постоянный
Битрейт : 192 Кбит/сек
Каналы : 2 канала
Расположение каналов : Front: L R
Частота : 48,0 КГц
Битовая глубина : 16 бит
Метод сжатия : С потерями
Размер потока : 64,0 Мбайт (9%)
Выравнивание : Разделение по промежуткам
Продолжительность промежутка : 40 мс. (1,00 видеокадр)
Время предзагрузки промежутка : 500 ms
Релиз от:

Релиз подготовлен R.G.Files-x

[Профиль] [ЛС]
Показать сообщения:    
Ответить на тему

Текущее время: 17-Фев 20:00

Часовой пояс: UTC + 3



Вы не можете начинать темы
Вы не можете отвечать на сообщения
Вы не можете редактировать свои сообщения
Вы не можете удалять свои сообщения
Вы не можете голосовать в опросах
Вы не можете прикреплять файлы к сообщениям
Вы не можете скачивать файлы