Родная кровь [1-4 серии из 4] (2018) SATRip-AVC от Files-x

Reply to topic
 
Author Message

Nicodem ®

Gender: Male

Longevity: 8 months 4 days

Posts: 178

Post 25-Nov-2018 15:19

[Quote]

Родная кровь
Год выпуска: 2018
Жанр: Мелодрама
Выпущено: Россия, Украина, Кинокомпания "Star Media"
Режиссер: Роман Барабаш
В ролях: Анастасия Панина, Антон Батырев, Валерия Ходос, Ксения Николаева, Ольга Радчук, Никита Балев
О фильме: Вероника забеременела в 17 лет. Ухажер, испугавшись беременности, бросил ее. Роды были тяжелыми, ребенок родился недоношенным. Мать убедила Веронику, что ему будет лучше в обеспеченной семье. В 29 лет Вероника узнала, что ее ребенка отдали в детдом на воспитание. Вероника находит и усыновляет собственного сына, не говоря, что она его родная мать.

Качество: SATRip-AVC
Видео: MPEG-4 AVC, ~ 1500 Кбит/с, 1024x576, 25 кадр/с
Аудио: AC3, 2 ch, 192 Кбит/с
Продолжительность: 4 х 00:48:00
Перевод: Не требуется
Cубтитры: Украинские

Скриншоты


MediaInfo

General
Unique ID : 197733893690860074878885373561403980582 (0x94C229A5EAE4E4199CAF61700C39BB26)
Complete name : C:\Users\DOM\Downloads\Родная кровь.(2018).SATRip.(AVC).Files-x\01.Родная кровь.(2018).SATRip.(AVC).by.Серый1779.Files-x.mkv
Format : Matroska
File size : 572 MiB
Duration : 47mn 13s
Overall bit rate : 1 694 Kbps
Encoded date : UTC 2018-08-24 16:09:59
Writing application : mkvmerge v7.8.0 ('River Man') 32bit built on Apr 3 2015 12:11:22
Writing library : libebml v1.3.1 + libmatroska v1.4.2
Video
ID : 1
Format : AVC
Format/Info : Advanced Video Codec
Format profile : High@L4.1
Format settings, CABAC : Yes
Format settings, ReFrames : 9 frames
Codec ID : V_MPEG4/ISO/AVC
Duration : 47mn 13s
Bit rate : 1 500 Kbps
Width : 720 pixels
Height : 400 pixels
Display aspect ratio : 16:9
Frame rate : 25.000 fps
Color space : YUV
Chroma subsampling : 4:2:0
Bit depth : 8 bits
Scan type : Progressive
Bits/(Pixel*Frame) : 0.208
Stream size : 496 MiB (87%)
Writing library : x264 core 146 r2538 121396c
Encoding settings : cabac=1 / ref=9 / deblock=1:-3:-3 / analyse=0x3:0x133 / me=umh / subme=9 / psy=1 / psy_rd=1.00:0.15 / mixed_ref=1 / me_range=32 / chroma_me=1 / trellis=2 / 8x8dct=1 / cqm=0 / deadzone=21,11 / fast_pskip=0 / chroma_qp_offset=-3 / threads=18 / lookahead_threads=3 / sliced_threads=0 / nr=0 / decimate=1 / interlaced=0 / bluray_compat=0 / constrained_intra=0 / bframes=9 / b_pyramid=2 / b_adapt=2 / b_bias=0 / direct=1 / weightb=1 / open_gop=0 / weightp=2 / keyint=250 / keyint_min=25 / scenecut=40 / intra_refresh=0 / rc=2pass / mbtree=0 / bitrate=1500 / ratetol=1.0 / qcomp=0.60 / qpmin=0 / qpmax=69 / qpstep=4 / cplxblur=20.0 / qblur=0.5 / ip_ratio=1.40 / pb_ratio=1.30 / aq=2:1.00
Color primaries : BT.470-6 System B, BT.470-6 System G, BT.601-6 625, BT.1358 625, BT.1700 625 PAL, BT.1700 625 SECAM
Transfer characteristics : BT.470-6 System B, BT.470-6 System G
Matrix coefficients : BT.470-6 System B, BT.470-6 System G, BT.601-6 625, BT.1358 625, BT.1700 625 PAL, BT.1700 625 SECAM, IEC 61966-2-4 601
Audio
ID : 2
Format : AC-3
Format/Info : Audio Coding 3
Mode extension : CM (complete main)
Codec ID : A_AC3
Duration : 47mn 13s
Bit rate mode : Constant
Bit rate : 192 Kbps
Channel(s) : 2 channels
Channel positions : Front: L R
Sampling rate : 48.0 KHz
Bit depth : 16 bits
Compression mode : Lossy
Stream size : 64.9 MiB (11%)
Релиз от:
[Profile] [PM]
Display posts:    
Reply to topic

Current time is: 22-Jul 05:47

All times are UTC + 3



You cannot post new topics in this forum
You cannot reply to topics in this forum
You cannot edit your posts in this forum
You cannot delete your posts in this forum
You cannot vote in polls in this forum
You cannot attach files in this forum
You cannot download files in this forum