Родная кровь [1-4 серии из 4] (2018) DVB от Files-x

Ответить на тему
 
Автор Сообщение

Nicodem ®

Пол: Мужской

Стаж: 4 месяца 7 дней

Сообщений: 178

Создавать темы 25-Ноя-2018 15:22

[Цитировать]

Родная кровь
Год выпуска: 2018
Жанр: Мелодрама
Выпущено: Россия, Украина, Кинокомпания "Star Media"
Режиссер: Роман Барабаш
В ролях: Анастасия Панина, Антон Батырев, Валерия Ходос, Ксения Николаева, Ольга Радчук, Никита Балев
О фильме: Вероника забеременела в 17 лет. Ухажер, испугавшись беременности, бросил ее. Роды были тяжелыми, ребенок родился недоношенным. Мать убедила Веронику, что ему будет лучше в обеспеченной семье. В 29 лет Вероника узнала, что ее ребенка отдали в детдом на воспитание. Вероника находит и усыновляет собственного сына, не говоря, что она его родная мать.

Качество: DVB
Видео: MPEG-2, ~ 3680 Кбит/с, 720x576@1024х576, 25 кадр/с
Аудио: МР2, 2 ch, 192 Кбит/с
Продолжительность: 4 х 00:48:00
Перевод: Не требуется
Cубтитры: Украинские

Скриншоты


MediaInfo

General
ID : 1 (0x1)
Complete name : C:\Users\DOM\Downloads\Родная кровь.(2018).DVB.Files-x\01.Родная кровь.(2018).DVB.by.Серый1779.Files-x.ts
Format : MPEG-TS
File size : 1.34 GiB
Duration : 47mn 13s
Overall bit rate : 4 076 Kbps
Video
ID : 2405 (0x965)
Menu ID : 6610 (0x19D2)
Format : MPEG Video
Format version : Version 2
Format profile : Main@Main
Format settings, BVOP : Yes
Format settings, Matrix : Default
Format settings, GOP : M=1, N=21
Codec ID : 2
Duration : 47mn 13s
Bit rate mode : Variable
Bit rate : 3 680 Kbps
Nominal bit rate : 15.0 Mbps
Width : 704 pixels
Height : 576 pixels
Display aspect ratio : 16:9
Frame rate : 25.000 fps
Standard : PAL
Color space : YUV
Chroma subsampling : 4:2:0
Bit depth : 8 bits
Scan type : Interlaced
Scan order : Top Field First
Compression mode : Lossy
Bits/(Pixel*Frame) : 0.363
Stream size : 1.21 GiB (90%)
Audio
ID : 2406 (0x966)
Menu ID : 6610 (0x19D2)
Format : MPEG Audio
Format version : Version 1
Format profile : Layer 2
Codec ID : 3
Duration : 47mn 13s
Bit rate mode : Constant
Bit rate : 192 Kbps
Channel(s) : 1 channel
Sampling rate : 48.0 KHz
Compression mode : Lossy
Delay relative to video : 19ms
Stream size : 64.9 MiB (5%)
Language : Ukrainian
Релиз от:

Релиз подготовлен R.G.Files-x

[Профиль] [ЛС]
Показать сообщения:    
Ответить на тему

Текущее время: 25-Мар 13:54

Часовой пояс: UTC + 3



Вы не можете начинать темы
Вы не можете отвечать на сообщения
Вы не можете редактировать свои сообщения
Вы не можете удалять свои сообщения
Вы не можете голосовать в опросах
Вы не можете прикреплять файлы к сообщениям
Вы не можете скачивать файлы