Голос из прошлого / Какой она была [1-4 серии из 4] (2018) WEB-DL 720p от Files-x

Reply to topic
 
Author Message

Nicodem ®

Gender: Male

Longevity: 6 months 5 days

Posts: 178

Post 25-Nov-2018 15:39

[Quote]

Голос из прошлого / Какой она была
Год выпуска: 2018
Жанр: Мелодрама, социальная драма
Выпущено: Россия, Украина, Кинокомпания "Star Media"
Режиссер: Анатолий Григорьев
В ролях: Александр Попов (IV), Клавдия Дрозд, Анатоль Фон-Филандра, Наталья Калатай, Михаил Кукуюк, Вячеслав Гиндин, Николай Боклан, Сергей Пономаренко (III), Максим Максимюк, Вероника Гончар, Марина Куклина, Григорий Бакланов (II), Роман Лукьянов, Елена Дудич
О фильме: Успешный и преданный работе хирург Алексей Баженов знакомится с веселой и жизнерадостной Алей. Девушка передвигается на инвалидной коляске, но молодого человека это не смущает. Он снова и снова приглашает Алю на свидания и спустя какое-то время влюбляется в нее. Но девушкой движет вовсе не любовь, а месть: десять лет назад именно врачебная ошибка Алексея сделала ее инвалидом. Аля узнала обидчика еще во время первой встречи и решила во что бы то ни стало испортить молодому врачу жизнь: лишить его работы и возможности оперировать...

Качество: WEB-DL 720p
Видео: MPEG-4 AVC, ~ 1980 Кбит/с, 1280x720, 25 кадр/с
Аудио: AC3, 2 ch, 192 Кбит/с
Продолжительность: 4 х 00:43:10
Перевод: Не требуется
Cубтитры: нет

Скриншоты



MediaInfo

General
Unique ID : 171371098007297209981922595781272179040 (0x80ECDF780B490BE6C2AD392969D49160)
Complete name : C:\Users\DOM\Downloads\Голос из прошлого (Какой она была).2018.WEB-DL (720p).by.Nicodem.Files-x\01.Голос из прошлого (Какой она была).2018.WEB-DL (720p).by.Nicodem.Files-x.mkv
Format : Matroska
File size : 666 MiB
Duration : 43mn 7s
Overall bit rate : 2 160 Kbps
Writing application : Lavf56.36.100
Writing library : Lavf56.36.100
Video
ID : 1
Format : AVC
Format/Info : Advanced Video Codec
Format profile : High@L3.1
Format settings, CABAC : Yes
Format settings, ReFrames : 4 frames
Codec ID : V_MPEG4/ISO/AVC
Duration : 43mn 7s
Bit rate : 1 980 Kbps
Width : 1 280 pixels
Height : 720 pixels
Display aspect ratio : 16:9
Frame rate mode : Variable
Frame rate : 25.000 fps
Color space : YUV
Chroma subsampling : 4:2:0
Bit depth : 8 bits
Scan type : Progressive
Bits/(Pixel*Frame) : 0.086
Stream size : 594 MiB (89%)
Writing library : x264 core 148
Encoding settings : cabac=1 / ref=2 / deblock=1:0:0 / analyse=0x3:0x113 / me=hex / subme=6 / psy=1 / psy_rd=1.00:0.00 / mixed_ref=1 / me_range=16 / chroma_me=1 / trellis=1 / 8x8dct=1 / cqm=0 / deadzone=21,11 / fast_pskip=1 / chroma_qp_offset=-2 / threads=6 / lookahead_threads=1 / sliced_threads=0 / nr=0 / decimate=1 / interlaced=0 / bluray_compat=0 / constrained_intra=0 / bframes=3 / b_pyramid=2 / b_adapt=1 / b_bias=0 / direct=1 / weightb=1 / open_gop=0 / weightp=1 / keyint=250 / keyint_min=25 / scenecut=40 / intra_refresh=0 / rc_lookahead=30 / rc=2pass / mbtree=1 / bitrate=1980 / ratetol=1.0 / qcomp=0.60 / qpmin=0 / qpmax=69 / qpstep=4 / cplxblur=20.0 / qblur=0.5 / vbv_maxrate=1980 / vbv_bufsize=3960 / nal_hrd=none / filler=0 / ip_ratio=1.40 / aq=1:1.00
Language : English
Audio
ID : 2
Format : AC-3
Format/Info : Audio Coding 3
Mode extension : CM (complete main)
Codec ID : A_AC3
Duration : 43mn 7s
Bit rate mode : Constant
Bit rate : 192 Kbps
Channel(s) : 2 channels
Channel positions : Front: L R
Sampling rate : 44.1 KHz
Bit depth : 16 bits
Compression mode : Lossy
Delay relative to video : 1mn 5s
Stream size : 59.2 MiB (9%)
Language : English / un
Релиз от:
[Profile] [PM]
Display posts:    
Reply to topic

Current time is: 23-May 08:53

All times are UTC + 3



You cannot post new topics in this forum
You cannot reply to topics in this forum
You cannot edit your posts in this forum
You cannot delete your posts in this forum
You cannot vote in polls in this forum
You cannot attach files in this forum
You cannot download files in this forum