Голос из прошлого / Какой она была [1-4 серии из 4] (2018) WEB-DLRip от Files-x

Ответить на тему
 
Автор Сообщение

Nicodem ®

Пол: Мужской

Стаж: 4 месяца 1 день

Сообщений: 178

Создавать темы 25-Ноя-2018 15:43

[Цитировать]

Голос из прошлого / Какой она была
Год выпуска: 2018
Жанр: Мелодрама, социальная драма
Выпущено: Россия, Украина, Кинокомпания "Star Media"
Режиссер: Анатолий Григорьев
В ролях: Александр Попов (IV), Клавдия Дрозд, Анатоль Фон-Филандра, Наталья Калатай, Михаил Кукуюк, Вячеслав Гиндин, Николай Боклан, Сергей Пономаренко (III), Максим Максимюк, Вероника Гончар, Марина Куклина, Григорий Бакланов (II), Роман Лукьянов, Елена Дудич
О фильме: Успешный и преданный работе хирург Алексей Баженов знакомится с веселой и жизнерадостной Алей. Девушка передвигается на инвалидной коляске, но молодого человека это не смущает. Он снова и снова приглашает Алю на свидания и спустя какое-то время влюбляется в нее. Но девушкой движет вовсе не любовь, а месть: десять лет назад именно врачебная ошибка Алексея сделала ее инвалидом. Аля узнала обидчика еще во время первой встречи и решила во что бы то ни стало испортить молодому врачу жизнь: лишить его работы и возможности оперировать...

Качество: WEB-DLRip
Видео: XviD, ~ 1744 Кбит/с, 720x400, 25 кадр/с
Аудио: AC3, 2 ch, 192 Кбит/с
Продолжительность: 4 х 00:43:10
Перевод: Не требуется
Cубтитры: нет

Скриншоты




MediaInfo

General
Complete name : C:\Users\DOM\Downloads\Голос из прошлого (Какой она была).2018.WEB-DLRip.by.Nicodem.Files-x\01.Голос из прошлого (Какой она была).2018.WEB-DLRip.by.Nicodem.Files-x.avi
Format : AVI
Format/Info : Audio Video Interleave
File size : 600 MiB
Duration : 43mn 7s
Overall bit rate : 1 945 Kbps
Writing application : VirtualDubMod 1.5.10.3 | www.virtualdub-fr.org || (build 2550/release)
Writing library : VirtualDubMod build 2550/release
Video
ID : 0
Format : MPEG-4 Visual
Format profile : Advanced Simple@L5
Format settings, BVOP : 1
Format settings, QPel : Yes
Format settings, GMC : No warppoints
Format settings, Matrix : Custom
Codec ID : XVID
Codec ID/Hint : XviD
Duration : 43mn 7s
Bit rate : 1 744 Kbps
Width : 720 pixels
Height : 400 pixels
Display aspect ratio : 16:9
Frame rate : 25.000 fps
Color space : YUV
Chroma subsampling : 4:2:0
Bit depth : 8 bits
Scan type : Progressive
Compression mode : Lossy
Bits/(Pixel*Frame) : 0.242
Stream size : 538 MiB (90%)
Writing library : XviD 73
Audio
ID : 1
Format : AC-3
Format/Info : Audio Coding 3
Mode extension : CM (complete main)
Codec ID : 2000
Duration : 43mn 7s
Bit rate mode : Constant
Bit rate : 192 Kbps
Channel(s) : 2 channels
Channel positions : Front: L R
Sampling rate : 48.0 KHz
Bit depth : 16 bits
Compression mode : Lossy
Stream size : 59.2 MiB (10%)
Alignment : Split accross interleaves
Interleave, duration : 40 ms (1.00 video frame)
Interleave, preload duration : 500 ms
Релиз от:

Релиз подготовлен R.G.Files-x

[Профиль] [ЛС]
Показать сообщения:    
Ответить на тему

Текущее время: 19-Мар 05:30

Часовой пояс: UTC + 3



Вы не можете начинать темы
Вы не можете отвечать на сообщения
Вы не можете редактировать свои сообщения
Вы не можете удалять свои сообщения
Вы не можете голосовать в опросах
Вы не можете прикреплять файлы к сообщениям
Вы не можете скачивать файлы