Остаться в живых [1-6 серии из 6] (2018) SATRip от Files-x

Ответить на тему
 
Автор Сообщение

Nicodem ®

Пол: Мужской

Стаж: 4 месяца 1 день

Сообщений: 178

Создавать темы 25-Ноя-2018 16:56

[Цитировать]

Остаться в живых
Год выпуска: 2018
Жанр: Военный фильм, драма, мелодрама
Выпущено: Россия, Производство ООО "Стар Медиа Дистрибьюшн", ВГТРК
Режиссер: Андрей Малюков
В ролях: Егор Корешков, Михаил Пореченков, Александр Горбатов (II), Вера Панфилова, Дирк Мартенс, Олег Мазуров, Юрий Маслак, Евгения Дмитриева, Борис Каморзин, Денис Константинов, Сослан Фидаров, Юрий Уткин, Дмитрий Арбенин, Илья Сологуб, Юрий Титов, Константин Адаев
О фильме: Осень 1941 года. Немецкие войска продвигаются к Москве. Старшина Петр Стрельченко (Александр Горбатов) вместе с военным инженером Борисом Жихаревым (Егор Корешков) во время боя с немцами собираются взорвать стратегически важную для врага плотину. Но попытка срывается. Спасая Петру жизнь, Борис в последний момент не решается нажать на рычаг и, в итоге, оказывается в плену...

Качество: SATRip
Видео: XviD, ~ 1820 Кбит/с, 720x400, 25 кадр/с
Аудио: AC3, 2 ch, 192 Кбит/с
Продолжительность: 6 х 00:48:16
Перевод: Не требуется
Cубтитры: нет

Скриншоты


MediaInfo

General
Complete name : C:\Users\DOM\Downloads\Остаться в живых.2018.SATRip.by.Nicodem.Files-x\01.Остаться в живых.2018.SATRip.by.Nicodem.Files-x.avi
Format : AVI
Format/Info : Audio Video Interleave
File size : 698 MiB
Duration : 48mn 16s
Overall bit rate : 2 022 Kbps
Writing application : VirtualDubMod 1.5.10.3 | www.virtualdub-fr.org || (build 2550/release)
Writing library : VirtualDubMod build 2550/release
Video
ID : 0
Format : MPEG-4 Visual
Format profile : Advanced Simple@L5
Format settings, BVOP : 1
Format settings, QPel : Yes
Format settings, GMC : No warppoints
Format settings, Matrix : Custom
Codec ID : XVID
Codec ID/Hint : XviD
Duration : 48mn 16s
Bit rate : 1 820 Kbps
Width : 720 pixels
Height : 400 pixels
Display aspect ratio : 16:9
Frame rate : 25.000 fps
Color space : YUV
Chroma subsampling : 4:2:0
Bit depth : 8 bits
Scan type : Progressive
Compression mode : Lossy
Bits/(Pixel*Frame) : 0.253
Stream size : 628 MiB (90%)
Writing library : XviD 73
Audio
ID : 1
Format : AC-3
Format/Info : Audio Coding 3
Mode extension : CM (complete main)
Codec ID : 2000
Duration : 48mn 16s
Bit rate mode : Constant
Bit rate : 192 Kbps
Channel(s) : 2 channels
Channel positions : Front: L R
Sampling rate : 48.0 KHz
Bit depth : 16 bits
Compression mode : Lossy
Stream size : 66.3 MiB (9%)
Alignment : Split accross interleaves
Interleave, duration : 40 ms (1.00 video frame)
Interleave, preload duration : 500 ms
Релиз от:

Релиз подготовлен R.G.Files-x

[Профиль] [ЛС]
Показать сообщения:    
Ответить на тему

Текущее время: 19-Мар 05:35

Часовой пояс: UTC + 3



Вы не можете начинать темы
Вы не можете отвечать на сообщения
Вы не можете редактировать свои сообщения
Вы не можете удалять свои сообщения
Вы не можете голосовать в опросах
Вы не можете прикреплять файлы к сообщениям
Вы не можете скачивать файлы