Остаться в живых [1-6 серии из 6] (2018) WEB-DLRip от Files-x

Reply to topic
 
Author Message

Nicodem ®

Gender: Male

Longevity: 5 months 5 days

Posts: 178

Post 25-Nov-2018 17:03

[Quote]

Остаться в живых
Год выпуска: 2018
Жанр: Военный фильм, драма, мелодрама
Выпущено: Россия, Производство ООО "Стар Медиа Дистрибьюшн", ВГТРК
Режиссер: Андрей Малюков
В ролях: Егор Корешков, Михаил Пореченков, Александр Горбатов (II), Вера Панфилова, Дирк Мартенс, Олег Мазуров, Юрий Маслак, Евгения Дмитриева, Борис Каморзин, Денис Константинов, Сослан Фидаров, Юрий Уткин, Дмитрий Арбенин, Илья Сологуб, Юрий Титов, Константин Адаев
О фильме: Осень 1941 года. Немецкие войска продвигаются к Москве. Старшина Петр Стрельченко (Александр Горбатов) вместе с военным инженером Борисом Жихаревым (Егор Корешков) во время боя с немцами собираются взорвать стратегически важную для врага плотину. Но попытка срывается. Спасая Петру жизнь, Борис в последний момент не решается нажать на рычаг и, в итоге, оказывается в плену...

Качество: WEB-DLRip
Видео: XviD, ~ 1516 Кбит/с, 720x400, 25 кадр/с
Аудио: AC3, 2 ch, 192 Кбит/с
Продолжительность: 6 х 00:48:16
Перевод: Не требуется
Cубтитры: нет

Скриншоты

MediaInfo

General
Complete name : C:\Users\DOM\Downloads\Остаться в живых. (2018).WEB-DLRip.Files-x\1.Остаться в живых. (2018).WEB-DLRip.Files-x.avi
Format : AVI
Format/Info : Audio Video Interleave
File size : 648 MiB
Duration : 52mn 42s
Overall bit rate : 1 718 Kbps
Writing application : VirtualDubMod 1.5.10.3 | www.virtualdub-fr.org || (build 2550/release)
Writing library : VirtualDubMod build 2550/release
Video
ID : 0
Format : MPEG-4 Visual
Format profile : Advanced Simple@L5
Format settings, BVOP : 1
Format settings, QPel : No
Format settings, GMC : No warppoints
Format settings, Matrix : Custom
Codec ID : XVID
Codec ID/Hint : XviD
Duration : 52mn 42s
Bit rate : 1 516 Kbps
Width : 720 pixels
Height : 400 pixels
Display aspect ratio : 16:9
Frame rate : 25.000 fps
Color space : YUV
Chroma subsampling : 4:2:0
Bit depth : 8 bits
Scan type : Progressive
Compression mode : Lossy
Bits/(Pixel*Frame) : 0.211
Stream size : 572 MiB (88%)
Writing library : XviD 73
Audio
ID : 1
Format : AC-3
Format/Info : Audio Coding 3
Mode extension : CM (complete main)
Codec ID : 2000
Duration : 52mn 42s
Bit rate mode : Constant
Bit rate : 192 Kbps
Channel(s) : 2 channels
Channel positions : Front: L R
Sampling rate : 48.0 KHz
Bit depth : 16 bits
Compression mode : Lossy
Stream size : 72.4 MiB (11%)
Alignment : Split accross interleaves
Interleave, duration : 40 ms (1.00 video frame)
Interleave, preload duration : 500 ms
Релиз от:
[Profile] [PM]

lkas1010

Gender: Male

Longevity: 4 months 27 days

Posts: 6

Post 01-Jan-2019 19:25 (after 1 month 6 days)

[Quote]

Спасибо!
[Profile] [PM]
Display posts:    
Reply to topic

Current time is: 23-Apr 09:56

All times are UTC + 3



You cannot post new topics in this forum
You cannot reply to topics in this forum
You cannot edit your posts in this forum
You cannot delete your posts in this forum
You cannot vote in polls in this forum
You cannot attach files in this forum
You cannot download files in this forum