Стрелок [1-3 сезоны: 1-11 серии из 11] (2012-2018) HDTVRip от Files-x

Reply to topic
 
Author Message

Nicodem ®

Gender: Male

Longevity: 1 year

Posts: 284

Post 25-Nov-2018 17:38

[Quote]

Стрелок
Год выпуска: 2012-2018
Жанр: Боевик
Выпущено: Россия, Студия Берг Саун, Berg Sound
Режиссер: Арман Геворгян, Аршо Арутюнян, Михаил Погосов
В ролях: Александр Песков, Евгений Березовский, Армен Петросян (II), Абел Абелян, Юрий Кормушин, Арташес Алексанян, Вруйр Арутюнян, Арташес Мхитарян, Сергей Апрельский, Виктор Фалалеев, Алёна Стебунова, Аршо Арутюнян, Николай Щенников, Виген Степанян, Людмила Константинова, Арцрун Седракян, Карлен Мурадян, Карен Гаспарян, Арман Геворгян, Владимир Мхитарян, Алексей Богачев, Карен Джангирян, Бабкен Чобанян, Эдгар Барсегян, Ара Саргсян, Фрида Йорк, Сергей Холмогоров, Карен Мкртчян, Дарья Белова, Сергей Товмасян, Тигран Мацакян, Нона Григорян, Ваган Оганисян, Аида Григорян, Артавазд Оганесян, Самвел Асатрян, Гайк Тадевосян, Роман Курцын
О фильме: Каждый из них потерял своего напарника. Всё вместе они уйдут в горы, чтобы отомстить и остановить подготовку серии кровавых терактов. Кто из них выживет, кто выполнит задание, кто останется человеком, а кто станет предателем? Пока не известно. Главное, что в горах нет друзей и врагов! Есть только цель, долг, честь и желание выжить

Качество: HDTVRip
Видео: XviD, ~ 1703 Кбит/с, 720x400, 720x304, 25 кадр/с
Аудио: AC3, 2 ch, 192 Кбит/с
Продолжительность: 11 х 00:44:00
Перевод: Не требуется
Cубтитры: нет

Скриншоты



MediaInfo

General
Complete name : C:\Users\DOM\Downloads\Стрелок.s01-s03.2012-2018.HDTVRip.by.Nicodem.Files-x\01.Стрелок.s01.E01.2012.HDTVRip.by.Nicodem.Files-x.avi
Format : AVI
Format/Info : Audio Video Interleave
File size : 599 MiB
Duration : 43mn 56s
Overall bit rate : 1 905 Kbps
Writing application : VirtualDubMod 1.5.10.3 | www.virtualdub-fr.org || (build 2550/release)
Writing library : VirtualDubMod build 2550/release
Video
ID : 0
Format : MPEG-4 Visual
Format profile : Advanced Simple@L5
Format settings, BVOP : 1
Format settings, QPel : Yes
Format settings, GMC : No warppoints
Format settings, Matrix : Custom
Codec ID : XVID
Codec ID/Hint : XviD
Duration : 43mn 56s
Bit rate : 1 703 Kbps
Width : 720 pixels
Height : 400 pixels
Display aspect ratio : 16:9
Frame rate : 25.000 fps
Color space : YUV
Chroma subsampling : 4:2:0
Bit depth : 8 bits
Scan type : Progressive
Compression mode : Lossy
Bits/(Pixel*Frame) : 0.237
Stream size : 535 MiB (89%)
Writing library : XviD 73
Audio
ID : 1
Format : AC-3
Format/Info : Audio Coding 3
Mode extension : CM (complete main)
Codec ID : 2000
Duration : 43mn 56s
Bit rate mode : Constant
Bit rate : 192 Kbps
Channel(s) : 2 channels
Channel positions : Front: L R
Sampling rate : 48.0 KHz
Bit depth : 16 bits
Compression mode : Lossy
Stream size : 60.3 MiB (10%)
Alignment : Split accross interleaves
Interleave, duration : 40 ms (1.00 video frame)
Interleave, preload duration : 500 ms
Релиз от:
[Profile] [PM]
Display posts:    
Reply to topic

Current time is: 21-Nov 04:57

All times are UTC + 3



You cannot post new topics in this forum
You cannot reply to topics in this forum
You cannot edit your posts in this forum
You cannot delete your posts in this forum
You cannot vote in polls in this forum
You cannot attach files in this forum
You cannot download files in this forum