Стрелок. Возвращение героя [3 сезон: 1-3 серии из 3] (2018) SATRip от Files-x

Ответить на тему
 
Автор Сообщение

bond74 ®

Пол: Мужской

Стаж: 4 месяца 4 дня

Сообщений: 265

Создавать темы 26-Ноя-2018 21:49

[Цитировать]

Стрелок. Возвращение героя Год выпуска: 2018
Жанр: Боевик
Выпущено: Россия, Berg Sound
Режиссер: Михаил Погосов
В ролях: Евгений Березовский, Сергей Холмогоров, Виктор Фалалеев, Виген Степанян, Сергей Комаров (II), Алина Гуменюк, Роман Курцын
О фильме: Андрей Макаров возвращается. На этот раз ему предстоит разоблачить заговор иностранных спецслужб, вывести на чистую воду крупных коррумпированных чиновников и спасти своих близких. Ему поможет молодой сотрудник спецслужб Егор Бодров. Именно отец Егора был боевым товарищем и наставником Стрелка на его первом "настоящем" задании в горах Кавказа. Макарову и Бодрову придётся вступить в неравную схватку с опасными боевиками - и сделать всё возможное, чтобы победить...
Качество: SATRip
Видео: XviD, ~ 1500 Кбит/с, 720x400, 25 кадр/с
Аудио: AC3, 2 ch, 192 Кбит/с
Продолжительность: 3 х ~ 00:50:00
Перевод: Не требуется
Субтитры: нет

Скриншоты

MediaInfo

Общее
Полное имя : D:\закачки\Стрелок 3.2017.SATRip.Files-x\01.Стрелок 3.2017.SATRip.Files-x.avi
Формат : AVI
Формат/Информация : Audio Video Interleave
Размер файла : 602 Мбайт
Продолжительность : 49 м. 37 с.
Общий поток : 1697 Кбит/сек
Программа кодирования : VirtualDubMod 1.5.10.3 | www.virtualdub-fr.org || (build 2550/release)
Библиотека кодирования : VirtualDubMod build 2550/release
Видео
Идентификатор : 0
Формат : MPEG-4 Visual
Профиль формата : Advanced Simple@L5
Настройки формата : BVOP1 / Custom Matrix
Параметр BVOP формата : 1
Параметр QPel формата : Нет
Параметр GMC формата : Без точки перехода
Параметр матрицы формата : Выборочная
Идентификатор кодека : XVID
Идентификатор кодека/Подсказка : XviD
Продолжительность : 49 м. 37 с.
Битрейт : 1495 Кбит/сек
Ширина : 720 пикселей
Высота : 400 пикселей
Соотношение сторон : 16:9
Частота кадров : 25,000 кадров/сек
Цветовое пространство : YUV
Субдискретизация насыщенности : 4:2:0
Битовая глубина : 8 бит
Тип развёртки : Прогрессивная
Метод сжатия : С потерями
Бит/(Пиксели*Кадры) : 0.208
Размер потока : 530 Мбайт (88%)
Библиотека кодирования : XviD 73
Аудио
Идентификатор : 1
Формат : AC-3
Формат/Информация : Audio Coding 3
Идентификатор кодека : 2000
Продолжительность : 49 м. 36 с.
Вид битрейта : Постоянный
Битрейт : 192 Кбит/сек
Каналы : 2 канала
Расположение каналов : Front: L R
Частота : 48,0 КГц
Частота кадров : 31,250 кадров/сек (1536 SPF)
Битовая глубина : 16 бит
Метод сжатия : С потерями
Размер потока : 68,1 Мбайт (11%)
Выравнивание : Разделение по промежуткам
Продолжительность промежутка : 40 мс. (1,00 видеокадр)
Время предзагрузки промежутка : 500 мс.
ServiceKind/String : Complete Main
Релиз от:

Релиз подготовлен R.G.Files-x

[Профиль] [ЛС]
Показать сообщения:    
Ответить на тему

Текущее время: 19-Мар 05:34

Часовой пояс: UTC + 3



Вы не можете начинать темы
Вы не можете отвечать на сообщения
Вы не можете редактировать свои сообщения
Вы не можете удалять свои сообщения
Вы не можете голосовать в опросах
Вы не можете прикреплять файлы к сообщениям
Вы не можете скачивать файлы