Дом с черными котами [1-4 серии из 4] (2018) SATRip от Files-x

Ответить на тему
 
Автор Сообщение

Nicodem ®

Пол: Мужской

Стаж: 4 месяца 1 день

Сообщений: 178

Создавать темы 25-Ноя-2018 18:09

[Цитировать]

Дом с черными котами
Год выпуска: 2018
Жанр: Детектив, мелодрама, триллер
Выпущено: Россия, ООО «Леандра Продакшн»
Режиссер: Игорь Нурисламов
В ролях: Татьяна Чердынцева, Владимир Жеребцов, Владимир Петров (VIII), Валентин Воробьёв, Елена Мартыненко, Алексей Красноцветов, Алексей Штукин, Вероника Норина, Андрей Аверков, Светлана Смирнова-Кацагаджиева, Олег Леваков, Михаил Батуев, Валерий Кухарешин, Артур Ваха, Артём Лещик, Евгения Любимова, Данила Воропаев, Руслан Барабанов, Виктор Выбриенко
О фильме: Тоня - укладчица текста на студии дубляжа. Она работает над фильмом, в котором использованы документальные кадры. На экране Тоня видит человека, отчаянное лицо которого ее поражает. Он что-то кричит. Тоня обращается к лингвисту и узнает, что человек на экране кричал по-латышски буквально следующее: "Меня убьют! Ищите в кошачьем доме, семь! Юо! Юо!". Тоня просит журналиста Марину, живущую в Риге, разыскать человека, снявшего хронику. Та выясняет, что телевизионщик погиб. А на следующий день пропадает и сама Марина. Тоня едет в Латвию, еще не догадываясь, куда заведет ее эта история, которая началась еще в XV веке...

Качество: SATRip
Видео: XviD, ~ 1636 Кбит/с, 720x400, 25 кадр/с
Аудио: AC3, 2 ch, 192 Кбит/с
Продолжительность: 4 х 00:45:40
Перевод: Не требуется
Cубтитры: нет

Скриншоты



MediaInfo

General
Complete name : C:\Users\DOM\Downloads\Дом с черными котами.2018.SATRip.by.Nicodem.Files-x\01.Дом с черными котами.2018.SATRip.by.Nicodem.Files-x.avi
Format : AVI
Format/Info : Audio Video Interleave
File size : 601 MiB
Duration : 45mn 40s
Overall bit rate : 1 838 Kbps
Writing application : VirtualDubMod 1.5.10.3 | www.virtualdub-fr.org || (build 2550/release)
Writing library : VirtualDubMod build 2550/release
Video
ID : 0
Format : MPEG-4 Visual
Format profile : Advanced Simple@L5
Format settings, BVOP : 1
Format settings, QPel : Yes
Format settings, GMC : No warppoints
Format settings, Matrix : Custom
Codec ID : XVID
Codec ID/Hint : XviD
Duration : 45mn 40s
Bit rate : 1 636 Kbps
Width : 720 pixels
Height : 400 pixels
Display aspect ratio : 16:9
Frame rate : 25.000 fps
Color space : YUV
Chroma subsampling : 4:2:0
Bit depth : 8 bits
Scan type : Progressive
Compression mode : Lossy
Bits/(Pixel*Frame) : 0.227
Stream size : 535 MiB (89%)
Writing library : XviD 73
Audio
ID : 1
Format : AC-3
Format/Info : Audio Coding 3
Mode extension : CM (complete main)
Codec ID : 2000
Duration : 45mn 40s
Bit rate mode : Constant
Bit rate : 192 Kbps
Channel(s) : 2 channels
Channel positions : Front: L R
Sampling rate : 48.0 KHz
Bit depth : 16 bits
Compression mode : Lossy
Stream size : 62.7 MiB (10%)
Alignment : Split accross interleaves
Interleave, duration : 40 ms (1.00 video frame)
Interleave, preload duration : 500 ms
Релиз от:

Релиз подготовлен R.G.Files-x

[Профиль] [ЛС]
Показать сообщения:    
Ответить на тему

Текущее время: 19-Мар 05:32

Часовой пояс: UTC + 3



Вы не можете начинать темы
Вы не можете отвечать на сообщения
Вы не можете редактировать свои сообщения
Вы не можете удалять свои сообщения
Вы не можете голосовать в опросах
Вы не можете прикреплять файлы к сообщениям
Вы не можете скачивать файлы