Дом с черными котами [1-4 серии из 4] (2018) WEB-DLRip от Files-x

Reply to topic
 
Author Message

Nicodem ®

Gender: Male

Longevity: 6 months 7 days

Posts: 178

Post 25-Nov-2018 18:13

[Quote]

Дом с черными котами
Год выпуска: 2018
Жанр: Детектив, мелодрама, триллер
Выпущено: Россия, ООО «Леандра Продакшн»
Режиссер: Игорь Нурисламов
В ролях: Татьяна Чердынцева, Владимир Жеребцов, Владимир Петров (VIII), Валентин Воробьёв, Елена Мартыненко, Алексей Красноцветов, Алексей Штукин, Вероника Норина, Андрей Аверков, Светлана Смирнова-Кацагаджиева, Олег Леваков, Михаил Батуев, Валерий Кухарешин, Артур Ваха, Артём Лещик, Евгения Любимова, Данила Воропаев, Руслан Барабанов, Виктор Выбриенко
О фильме: Тоня - укладчица текста на студии дубляжа. Она работает над фильмом, в котором использованы документальные кадры. На экране Тоня видит человека, отчаянное лицо которого ее поражает. Он что-то кричит. Тоня обращается к лингвисту и узнает, что человек на экране кричал по-латышски буквально следующее: "Меня убьют! Ищите в кошачьем доме, семь! Юо! Юо!". Тоня просит журналиста Марину, живущую в Риге, разыскать человека, снявшего хронику. Та выясняет, что телевизионщик погиб. А на следующий день пропадает и сама Марина. Тоня едет в Латвию, еще не догадываясь, куда заведет ее эта история, которая началась еще в XV веке...

Качество: WEB-DLRip
Видео: XviD, ~ 1481 Кбит/с, 720x400, 25 кадр/с
Аудио: AC3, 2 ch, 192 Кбит/с
Продолжительность: 4 х 00:45:40
Перевод: Не требуется
Cубтитры: нет

Скриншоты

MediaInfo

General
Complete name : C:\Users\DOM\Downloads\Дом с черными котами (2018).WEB-DLRip.Files-x\1.Дом с черными котами (2018).WEB-DLRip.Files-x.avi
Format : AVI
Format/Info : Audio Video Interleave
File size : 552 MiB
Duration : 45mn 50s
Overall bit rate : 1 683 Kbps
Writing application : VirtualDubMod 1.5.10.3 | www.virtualdub-fr.org || (build 2550/release)
Writing library : VirtualDubMod build 2550/release
Video
ID : 0
Format : MPEG-4 Visual
Format profile : Advanced Simple@L5
Format settings, BVOP : 1
Format settings, QPel : No
Format settings, GMC : No warppoints
Format settings, Matrix : Custom
Codec ID : XVID
Codec ID/Hint : XviD
Duration : 45mn 50s
Bit rate : 1 481 Kbps
Width : 720 pixels
Height : 400 pixels
Display aspect ratio : 16:9
Frame rate : 25.000 fps
Color space : YUV
Chroma subsampling : 4:2:0
Bit depth : 8 bits
Scan type : Progressive
Compression mode : Lossy
Bits/(Pixel*Frame) : 0.206
Stream size : 486 MiB (88%)
Writing library : XviD 73
Audio
ID : 1
Format : AC-3
Format/Info : Audio Coding 3
Mode extension : CM (complete main)
Codec ID : 2000
Duration : 45mn 50s
Bit rate mode : Constant
Bit rate : 192 Kbps
Channel(s) : 2 channels
Channel positions : Front: L R
Sampling rate : 48.0 KHz
Bit depth : 16 bits
Compression mode : Lossy
Stream size : 63.0 MiB (11%)
Alignment : Split accross interleaves
Interleave, duration : 40 ms (1.00 video frame)
Interleave, preload duration : 500 ms
Релиз от:
[Profile] [PM]
Display posts:    
Reply to topic

Current time is: 24-May 17:06

All times are UTC + 3



You cannot post new topics in this forum
You cannot reply to topics in this forum
You cannot edit your posts in this forum
You cannot delete your posts in this forum
You cannot vote in polls in this forum
You cannot attach files in this forum
You cannot download files in this forum