Сдаётся домик у моря [1-20 серии из 20] (2017-2018) WEBRip от Files-x

Reply to topic
 
Author Message

Nicodem ®

Gender: Male

Longevity: 7 months 29 days

Posts: 178

Post 25-Nov-2018 18:32

[Quote]

Сдаётся домик у моря
Год выпуска: 2017-2018
Жанр: Комедия
Выпущено: Украина, Vaverka Production
Режиссер: Антон Щербаков
В ролях: Алеся Пуховая, Анатолий Зиновенко, Дмитрий Суржиков, Георгий Петренко, Никита Балев, Вера Кавалерова, Юлия Гершаник
О фильме: «То, что происходит в этой одесской семье, знакомо каждому. Когда герои конфликтуют, они все равно находят слова и поступки, которые показывают, что не так все плохо в нашей жизни. Ведь любые ссоры – не навсегда. С одной стороны – история о взаимоотношениях и конфликтных ситуациях, а с другой стороны – всегда сохраняется любовь. В каждом кадре мы хотим показать тепло, солнце и уют, чтобы у зрителя возникло желание туда попасть. Поэтому наша Одесса не постсоветская, а новая, современная, курортная. Наша Одесса – украинский Сен-Тропе. «Как известно, в любом сериале должен быть главный герой; в нашем случае это хозяйка дома. Зовут её Жанна, и на ней держится вся семья. Если она уйдет, все развалится, как бывает во многих украинских семьях. Возможно, это наша модель жизни. Главная героиня очень добрая, поэтому под одной крышей живут и ее муж, и бывший муж, которого она временно приютила, дети от первого брака, ребенок от второго и ко всему прочему приезжает мама»…
Качество: WEBRip
Видео: XviD, ~ 1541 Кбит/с, 720x400, 25 кадр/с
Аудио: AC3, 2 ch, 192 Кбит/с
Продолжительность: 20 х 00:48:00
Перевод: Не требуется
Cубтитры: нет

Скриншоты





MediaInfo

General
Complete name : C:\Users\DOM\Downloads\Сдаёться домик у моря.2017-2018.WEBRip.by.Nicodem.Files-x\01.Сдаёться домик у моря.2017-2018.WEBRip.by.Nicodem.Files-x.avi
Format : AVI
Format/Info : Audio Video Interleave
File size : 598 MiB
Duration : 47mn 59s
Overall bit rate : 1 742 Kbps
Writing application : VirtualDubMod 1.5.10.3 | www.virtualdub-fr.org || (build 2550/release)
Writing library : VirtualDubMod build 2550/release
Video
ID : 0
Format : MPEG-4 Visual
Format profile : Advanced Simple@L5
Format settings, BVOP : 1
Format settings, QPel : Yes
Format settings, GMC : No warppoints
Format settings, Matrix : Custom
Codec ID : XVID
Codec ID/Hint : XviD
Duration : 47mn 59s
Bit rate : 1 541 Kbps
Width : 720 pixels
Height : 400 pixels
Display aspect ratio : 16:9
Frame rate : 25.000 fps
Color space : YUV
Chroma subsampling : 4:2:0
Bit depth : 8 bits
Scan type : Progressive
Compression mode : Lossy
Bits/(Pixel*Frame) : 0.214
Stream size : 529 MiB (88%)
Writing library : XviD 73
Audio
ID : 1
Format : AC-3
Format/Info : Audio Coding 3
Mode extension : CM (complete main)
Codec ID : 2000
Duration : 47mn 59s
Bit rate mode : Constant
Bit rate : 192 Kbps
Channel(s) : 2 channels
Channel positions : Front: L R
Sampling rate : 48.0 KHz
Bit depth : 16 bits
Compression mode : Lossy
Stream size : 65.9 MiB (11%)
Alignment : Split accross interleaves
Interleave, duration : 40 ms (1.00 video frame)
Interleave, preload duration : 500 ms
Релиз от:
[Profile] [PM]
Display posts:    
Reply to topic

Current time is: 17-Jul 10:37

All times are UTC + 3



You cannot post new topics in this forum
You cannot reply to topics in this forum
You cannot edit your posts in this forum
You cannot delete your posts in this forum
You cannot vote in polls in this forum
You cannot attach files in this forum
You cannot download files in this forum