Сдаётся домик у моря [1-20 серии из 20] (2017-2018) WEBRip 720p от Files-x

Reply to topic
 
Author Message

Nicodem ®

Gender: Male

Longevity: 1 year

Posts: 280

Post 25-Nov-2018 18:43

[Quote]

Сдаётся домик у моря
Год выпуска: 2017-2018
Жанр: Комедия
Выпущено: Украина, Vaverka Production
Режиссер: Антон Щербаков
В ролях: Алеся Пуховая, Анатолий Зиновенко, Дмитрий Суржиков, Георгий Петренко, Никита Балев, Вера Кавалерова, Юлия Гершаник
О фильме: «То, что происходит в этой одесской семье, знакомо каждому. Когда герои конфликтуют, они все равно находят слова и поступки, которые показывают, что не так все плохо в нашей жизни. Ведь любые ссоры – не навсегда. С одной стороны – история о взаимоотношениях и конфликтных ситуациях, а с другой стороны – всегда сохраняется любовь. В каждом кадре мы хотим показать тепло, солнце и уют, чтобы у зрителя возникло желание туда попасть. Поэтому наша Одесса не постсоветская, а новая, современная, курортная. Наша Одесса – украинский Сен-Тропе. «Как известно, в любом сериале должен быть главный герой; в нашем случае это хозяйка дома. Зовут её Жанна, и на ней держится вся семья. Если она уйдет, все развалится, как бывает во многих украинских семьях. Возможно, это наша модель жизни. Главная героиня очень добрая, поэтому под одной крышей живут и ее муж, и бывший муж, которого она временно приютила, дети от первого брака, ребенок от второго и ко всему прочему приезжает мама»…
Качество: WEBRip 720p
Видео: MPEG-4 AVC, ~ 3000 Кбит/с, 1280х720, 25 кадр/с
Аудио: AC3, 2 ch, 192 Кбит/с
Продолжительность: 20 х 00:48:00
Перевод: Не требуется
Cубтитры: нет

MediaInfo

General
Unique ID : 62790571824288860184240801649179881358 (0x2F3D0635422A23C815F00543CA11EF8E)
Complete name : C:\Users\DOM\Downloads\Сдается домик у моря.2017-2018.WEBRip (720p).by.Nicodem.Files-x\01.Сдается домик у моря.2017-2018.WEBRip (720p).by.Nicodem.Files-x.mkv
Format : Matroska
File size : 1.07 GiB
Duration : 47mn 59s
Overall bit rate : 3 194 Kbps
Writing application : Lavf56.36.100
Writing library : Lavf56.36.100
Video
ID : 1
Format : AVC
Format/Info : Advanced Video Codec
Format profile : High@L3.1
Format settings, CABAC : Yes
Format settings, ReFrames : 4 frames
Codec ID : V_MPEG4/ISO/AVC
Duration : 47mn 59s
Bit rate : 3 000 Kbps
Width : 1 280 pixels
Height : 720 pixels
Display aspect ratio : 16:9
Frame rate mode : Variable
Frame rate : 25.000 fps
Color space : YUV
Chroma subsampling : 4:2:0
Bit depth : 8 bits
Scan type : Progressive
Bits/(Pixel*Frame) : 0.130
Stream size : 1 008 MiB (92%)
Writing library : x264 core 142 r2491 24e4fed
Encoding settings : cabac=1 / ref=3 / deblock=1:0:0 / analyse=0x3:0x113 / me=hex / subme=7 / psy=1 / psy_rd=1.00:0.00 / mixed_ref=1 / me_range=16 / chroma_me=1 / trellis=1 / 8x8dct=1 / cqm=0 / deadzone=21,11 / fast_pskip=1 / chroma_qp_offset=-2 / threads=16 / lookahead_threads=2 / sliced_threads=0 / nr=0 / decimate=1 / interlaced=0 / bluray_compat=0 / constrained_intra=0 / bframes=3 / b_pyramid=2 / b_adapt=1 / b_bias=0 / direct=1 / weightb=1 / open_gop=0 / weightp=2 / keyint=250 / keyint_min=25 / scenecut=40 / intra_refresh=0 / rc_lookahead=40 / rc=abr / mbtree=1 / bitrate=3000 / ratetol=1.0 / qcomp=0.60 / qpmin=0 / qpmax=69 / qpstep=4 / ip_ratio=1.40 / aq=1:1.00
Language : English
Transfer characteristics : BT.601-6 525, BT.601-6 625, BT.1358 525, BT.1358 625, BT.1700 NTSC, SMPTE 170M
Matrix coefficients : BT.601-6 525, BT.1358 525, BT.1700 NTSC, SMPTE 170M
Audio
ID : 2
Format : AC-3
Format/Info : Audio Coding 3
Mode extension : CM (complete main)
Codec ID : A_AC3
Duration : 47mn 59s
Bit rate mode : Constant
Bit rate : 192 Kbps
Channel(s) : 2 channels
Channel positions : Front: L R
Sampling rate : 48.0 KHz
Bit depth : 16 bits
Compression mode : Lossy
Delay relative to video : 1mn 5s
Stream size : 65.9 MiB (6%)
Language : English / un
Релиз от:
[Profile] [PM]
Display posts:    
Reply to topic

Current time is: 17-Nov 21:47

All times are UTC + 3



You cannot post new topics in this forum
You cannot reply to topics in this forum
You cannot edit your posts in this forum
You cannot delete your posts in this forum
You cannot vote in polls in this forum
You cannot attach files in this forum
You cannot download files in this forum