Ускользающая жизнь / Наследство [1-2 серии из 2] (2018) WEB-DL 720p от Files-x

Reply to topic
 
Author Message

Nicodem ®

Gender: Male

Longevity: 10 months 1 day

Posts: 223

Post 25-Nov-2018 19:22

[Quote]

Ускользающая жизнь / Наследство
Год выпуска: 2018
Жанр: Детектив, мелодрама
Выпущено: Россия, Кинокомпания "Марс Медиа Энтертейнмент"
Режиссер: Владимир Нахабцев
В ролях: Глафира Тарханова, Александр Никитин (III), Юрий Беляев, Андрей Чадов, Александр Подобед, Андрей Карако, Анна Полупанова, Алеся Самоховец, Светлана Аникей, Олег Ткачёв, Надежда Анципович, Алла Ельяшевич, Игорь Петров (IV), Светлана Никифорова
О фильме: Успешный кардиохирург Альбина Виленская приходит в себя в больнице и узнает, что отец, известный адвокат, умер, лишив ее наследства, жених Игорь бесследно исчез, а сама она пыталась покончить с собой. Расследуя обстоятельства, которые привели к крушению ее жизни, Альбина снова оказывается на краю пропасти. К счастью, на ее пути появляется спаситель, с которым Альбину неожиданно многое связывает.

Качество: WEB-DL 720p
Видео: MPEG-4 AVC, ~ 2569 Кбит/с, 1280x720, 25 кадр/с
Аудио: AC3, 2 ch, 192 Кбит/с
Продолжительность: 2 х 00:48:00
Перевод: Не требуется
Cубтитры: нет

Скриншоты



MediaInfo

General
Unique ID : 43971594336107893415841903205902945950 (0x21149EFB6452F8346AFA6A608D578E9E)
Complete name : C:\Users\DOM\Downloads\Ускользающая жизнь (Наследство).2018.WEB-DL (720p).by.Nicodem.Files-x\01.Ускользающая жизнь (Наследство).2018.WEB-DL (720p).by.Nicodem.Files-x.mkv
Format : Matroska
File size : 946 MiB
Duration : 47mn 54s
Overall bit rate : 2 762 Kbps
Writing application : Lavf56.36.100
Writing library : Lavf56.36.100
Video
ID : 1
Format : AVC
Format/Info : Advanced Video Codec
Format profile : High@L4.0
Format settings, CABAC : Yes
Format settings, ReFrames : 4 frames
Format settings, GOP : M=3, N=50
Codec ID : V_MPEG4/ISO/AVC
Duration : 47mn 54s
Bit rate : 2 569 Kbps
Width : 1 280 pixels
Height : 720 pixels
Display aspect ratio : 16:9
Frame rate mode : Variable
Frame rate : 25.000 fps
Color space : YUV
Chroma subsampling : 4:2:0
Bit depth : 8 bits
Scan type : Progressive
Bits/(Pixel*Frame) : 0.112
Stream size : 862 MiB (91%)
Writing library : x264 core 142
Encoding settings : cabac=1 / ref=3 / deblock=1:0:0 / analyse=0x3:0x113 / me=hex / subme=7 / psy=1 / psy_rd=1.00:0.00 / mixed_ref=1 / me_range=16 / chroma_me=1 / trellis=1 / 8x8dct=1 / cqm=0 / deadzone=21,11 / fast_pskip=1 / chroma_qp_offset=-2 / threads=108 / lookahead_threads=5 / sliced_threads=0 / nr=0 / decimate=1 / interlaced=0 / bluray_compat=0 / constrained_intra=0 / bframes=6 / b_pyramid=2 / b_adapt=1 / b_bias=0 / direct=1 / weightb=1 / open_gop=0 / weightp=2 / keyint=50 / keyint_min=26 / scenecut=0 / intra_refresh=0 / rc_lookahead=40 / rc=2pass / mbtree=1 / bitrate=2569 / ratetol=1.0 / qcomp=0.60 / qpmin=0 / qpmax=69 / qpstep=4 / cplxblur=20.0 / qblur=0.5 / vbv_maxrate=3854 / vbv_bufsize=10279 / nal_hrd=none / filler=0 / ip_ratio=1.40 / aq=1:1.00
Language : English
Audio
ID : 2
Format : AC-3
Format/Info : Audio Coding 3
Mode extension : CM (complete main)
Codec ID : A_AC3
Duration : 47mn 54s
Bit rate mode : Constant
Bit rate : 192 Kbps
Channel(s) : 2 channels
Channel positions : Front: L R
Sampling rate : 48.0 KHz
Bit depth : 16 bits
Compression mode : Lossy
Delay relative to video : 1mn 5s
Stream size : 65.8 MiB (7%)
Language : English / un
Релиз от:
[Profile] [PM]
Display posts:    
Reply to topic

Current time is: 18-Sep 21:46

All times are UTC + 3



You cannot post new topics in this forum
You cannot reply to topics in this forum
You cannot edit your posts in this forum
You cannot delete your posts in this forum
You cannot vote in polls in this forum
You cannot attach files in this forum
You cannot download files in this forum